微博 微信

Hao4K影音

电影频道
电影封面:
片  名: 点球成金4k
电影分类: 剧情 传记 其他 
国  家: 美国 
年  代: 00年代
分 辨 率: 4K(3840x2160)
电影格式: MKV|REMUX 
画质标准: SDR 
音质编码: DTS-HD Master Audio 
电影声道: 5.1声道 
帧数/FPS: 23.976 帧
电影语言: 英文原版 
资源大小: 21.67 GB
导  演: 贝尼特·米勒
豆瓣评分: 8.3 分
中文字幕: -
剧情简介: 在美国职业棒球大联盟MLB中,比利(布拉德•皮特 Brad Pitt 饰)所属的奥克兰运动家队败给了财大气粗的纽约扬基队,这让他深受打击。雪上加霜的是三名主力纷纷被重金挖走,未来的赛季前途渺茫。在管理层会议上,大家一头雾水,只有他暗下决心改造球队。一次偶然的机会,他认识了耶鲁大学经济学硕士彼得(乔纳•希尔 Jonah Hill 饰),两者对于球队运营的理念不谋而合。凭借直觉和经验,他仿佛找到了破解金元棒球的钥匙。他聘请彼得作为自己的顾问,一起研究如何打造最高胜率的球队。他们用数学建模的方式,逐渐开始挖掘上垒率的潜在明星,并通过软磨硬泡将他们招致麾下。他们不在乎高层的冷嘲热讽,只是专心地为球队寻找信心和实力的根源,终于新的赛季开始了……
  影片改编自迈克尔•刘易斯的《魔球—逆境中致胜的智慧》(Moneyball: The Art of Winning an Unfair Game)。
魔球(港/台) / 钱与球 / 金球/ 点球成金4k Moneyball.2011.2160p.WEB-DL.x265.10bit.SDR.DTS-HD.MA.5.1-4k电影信息
  1. Video
  2. ID : 1
  3. Format : HEVC
  4. Format/Info : High Efficiency Video Coding
  5. Format profile : Main 10@L5.2@High
  6. Codec ID : V_MPEGH/ISO/HEVC
  7. Duration : 2 h 13 min
  8. Bit rate : 20.6 Mb/s
  9. Width : 3 840 pixels
  10. Height : 2 160 pixels
  11. Display aspect ratio : 16:9
  12. Frame rate mode : Constant
  13. Frame rate : 23.976 (24000/1001) FPS
  14. Color space : YUV
  15. Chroma subsampling : 4:2:0
  16. Bit depth : 10 bits
  17. Bits/(Pixel*Frame) : 0.104
  18. Stream size : 19.2 GiB (88%)
  19. Language : English
  20. Default : Yes
  21. Forced : No
  22. Color range : Limited
  23. Color primaries : BT.709
  24. Transfer characteristics : BT.709
  25. Matrix coefficients : BT.709

  26. Audio #1
  27. ID : 2
  28. ID in the original source medium : 4352 (0x1100)
  29. Format : DTS XLL
  30. Format/Info : Digital Theater Systems
  31. Commercial name : DTS-HD Master Audio
  32. Codec ID : A_DTS
  33. Duration : 2 h 13 min
  34. Bit rate mode : Variable
  35. Bit rate : 2 312 kb/s
  36. Channel(s) : 6 channels
  37. Channel layout : C L R Ls Rs LFE
  38. Sampling rate : 48.0 kHz
  39. Frame rate : 93.750 FPS (512 SPF)
  40. Bit depth : 16 bits
  41. Compression mode : Lossless
  42. Delay relative to video : 3 ms
  43. Stream size : 2.15 GiB (10%)
  44. Title : DTS-HD MA 5.1
  45. Language : English
  46. Default : Yes
  47. Forced : No
  48. Original source medium : Blu-ray

  49. Audio #2
  50. ID : 3
  51. Format : E-AC-3
  52. Format/Info : Enhanced AC-3
  53. Commercial name : Dolby Digital Plus
  54. Codec ID : A_EAC3
  55. Duration : 2 h 13 min
  56. Bit rate mode : Constant
  57. Bit rate : 384 kb/s
  58. Channel(s) : 6 channels
  59. Channel layout : L R C LFE Ls Rs
  60. Sampling rate : 48.0 kHz
  61. Frame rate : 31.250 FPS (1536 SPF)
  62. Compression mode : Lossy
  63. Stream size : 366 MiB (2%)
  64. Title : DDP 5.1
  65. Language : English
  66. Service kind : Complete Main
  67. Default : No
  68. Forced : No

  69. Text #1
  70. ID : 4
  71. Format : UTF-8
  72. Codec ID : S_TEXT/UTF8
  73. Codec ID/Info : UTF-8 Plain Text
  74. Duration : 2 h 4 min
  75. Bit rate : 74 b/s
  76. Count of elements : 1700
  77. Stream size : 68.0 KiB (0%)
  78. Language : English
  79. Default : Yes
  80. Forced : No

  81. Text #2
  82. ID : 5
  83. Format : UTF-8
  84. Codec ID : S_TEXT/UTF8
  85. Codec ID/Info : UTF-8 Plain Text
  86. Duration : 2 h 12 min
  87. Bit rate : 76 b/s
  88. Count of elements : 1595
  89. Stream size : 74.0 KiB (0%)
  90. Language : Danish
  91. Default : No
  92. Forced : No

  93. Text #3
  94. ID : 6
  95. Format : UTF-8
  96. Codec ID : S_TEXT/UTF8
  97. Codec ID/Info : UTF-8 Plain Text
  98. Duration : 2 h 12 min
  99. Bit rate : 65 b/s
  100. Count of elements : 1582
  101. Stream size : 63.7 KiB (0%)
  102. Language : Finnish
  103. Default : No
  104. Forced : No

  105. Text #4
  106. ID : 7
  107. Format : UTF-8
  108. Codec ID : S_TEXT/UTF8
  109. Codec ID/Info : UTF-8 Plain Text
  110. Duration : 2 h 12 min
  111. Bit rate : 70 b/s
  112. Count of elements : 1693
  113. Stream size : 68.6 KiB (0%)
  114. Language : French
  115. Default : No
  116. Forced : No

  117. Text #5
  118. ID : 8
  119. Format : UTF-8
  120. Codec ID : S_TEXT/UTF8
  121. Codec ID/Info : UTF-8 Plain Text
  122. Duration : 2 h 12 min
  123. Bit rate : 84 b/s
  124. Count of elements : 1831
  125. Stream size : 82.5 KiB (0%)
  126. Language : German
  127. Default : No
  128. Forced : No

  129. Text #6
  130. ID : 9
  131. Format : UTF-8
  132. Codec ID : S_TEXT/UTF8
  133. Codec ID/Info : UTF-8 Plain Text
  134. Duration : 2 h 12 min
  135. Bit rate : 68 b/s
  136. Count of elements : 1569
  137. Stream size : 66.8 KiB (0%)
  138. Language : Norwegian
  139. Default : No
  140. Forced : No

  141. Text #7
  142. ID : 10
  143. Format : UTF-8
  144. Codec ID : S_TEXT/UTF8
  145. Codec ID/Info : UTF-8 Plain Text
  146. Duration : 2 h 6 min
  147. Bit rate : 70 b/s
  148. Count of elements : 1623
  149. Stream size : 65.2 KiB (0%)
  150. Language : Polish
  151. Default : No
  152. Forced : No

  153. Text #8
  154. ID : 11
  155. Format : UTF-8
  156. Codec ID : S_TEXT/UTF8
  157. Codec ID/Info : UTF-8 Plain Text
  158. Duration : 2 h 12 min
  159. Bit rate : 70 b/s
  160. Count of elements : 1311
  161. Stream size : 68.1 KiB (0%)
  162. Language : Swedish
  163. Default : No
  164. Forced : No

  165. Menu
  166. 00:00:00.000 : Chapter 01
  167. 00:08:25.129 : Chapter 02
  168. 00:13:33.479 : Chapter 03
  169. 00:23:35.705 : Chapter 04
  170. 00:29:36.232 : Chapter 05
  171. 00:39:50.388 : Chapter 06
  172. 00:49:55.784 : Chapter 07
  173. 00:59:02.080 : Chapter 08
  174. 01:08:09.835 : Chapter 09
  175. 01:17:32.522 : Chapter 10
  176. 01:26:20.175 : Chapter 11
  177. 01:34:40.091 : Chapter 12
  178. 01:38:59.308 : Chapter 13
  179. 01:45:35.579 : Chapter 14
  180. 01:51:21.174 : Chapter 15
  181. 01:58:41.280 : Chapter 16
复制代码

魔球(港/台) / 钱与球 / 金球/ 点球成金4k Moneyball.2011.2160p.WEB-DL.x265.10bit.SDR.DTS-HD.MA.5.1-4k电影下载
点球成金4k Moneyball.2011.2160p.WEB-DL.x265.10bit.SDR.DTS-HD.MA.5.1【21.67 GB】
[Hao4k]点球成金4k Moneyball.2011.2160p.WEB-DL.x265.10bit.SDR.DTS-HD.MA.5.1-SWTYBLZ.torrent (27.73 KB, 售价: 2 个K币)
回复

使用道具 举报

全部回复18

990507 发表于 2021-8-21 01:30:08

990507 2

2021-8-21 01:30:08

很喜欢的一部片子,电脑里面有1080P的,不知道这个比1080P强多少。有老铁发个截图上来看看
回复 支持 反对

使用道具 举报

ll4027 发表于 2021-8-21 22:08:02

ll4027 3

2021-8-21 22:08:02

又是一部经典高分作品,很有必要收藏一下。
回复 支持 反对

使用道具 举报

horizan15 发表于 2021-8-21 22:33:18 Hao4K手机版

horizan15 4

2021-8-21 22:33:18

很早以前看过就在硬盘的收藏里,看到有4k必须要保存!谢谢楼主!
回复 支持 反对

使用道具 举报

Ainsworth 发表于 2021-8-21 22:44:22

Ainsworth 5

2021-8-21 22:44:22

高分电影,下载收藏
回复 支持 反对

使用道具 举报

LingguBon 发表于 2021-8-22 15:48:35

LingguBon 6

2021-8-22 15:48:35

有字幕吗
回复 支持 反对

使用道具 举报

zst666 发表于 2021-8-22 17:02:09

zst666 7

2021-8-22 17:02:09

经典励志片,收藏必备。
回复 支持 反对

使用道具 举报

巍爱鼓掌 发表于 2021-8-22 22:47:27 Hao4K手机版

巍爱鼓掌 8

2021-8-22 22:47:27

又是一部经典高分作品,很有必要收藏一下
回复 支持 反对

使用道具 举报

zjqlogohao 发表于 2021-8-23 15:42:33

zjqlogohao 9

2021-8-23 15:42:33


经典励志片,收藏必备
回复 支持 反对

使用道具 举报

王凯102 发表于 2021-8-24 07:43:22

王凯102 10

2021-8-24 07:43:22

感谢楼主无私奉献,收藏了
回复 支持 反对

使用道具 举报

17774419373 发表于 2021-8-24 08:28:41

17774419373 11

2021-8-24 08:28:41

是不是真4K啊,下来看看,谢谢先
回复 支持 反对

使用道具 举报

69ksblk 发表于 2021-8-24 20:21:08

69ksblk 12

2021-8-24 20:21:08

一直想看,一直没看的。
回复 支持 反对

使用道具 举报

13700998870 发表于 2021-8-26 10:41:20

13700998870 13

2021-8-26 10:41:20

无敌,谢谢
回复 支持 反对

使用道具 举报

TonyStark728 发表于 2021-8-28 19:09:09

TonyStark728 14

2021-8-28 19:09:09

吴缔了
回复 支持 反对

使用道具 举报

yuanbinhui 发表于 2021-9-1 14:40:49

yuanbinhui 15

2021-9-1 14:40:49

谢谢分享!
回复 支持 反对

使用道具 举报

cobain121 发表于 2021-9-1 20:05:43

cobain121 16

2021-9-1 20:05:43

有中文么。。~0~。。谢谢
回复 支持 反对

使用道具 举报

mrkid 发表于 2021-9-3 11:39:26

mrkid 17

2021-9-3 11:39:26

谢谢分享!一直觉得这部片子是布拉德皮特的转型之作。
回复 支持 反对

使用道具 举报

sugarjie 发表于 2021-9-5 16:08:42

sugarjie 18

2021-9-5 16:08:42

老片子了,支持一下!
回复 支持 反对

使用道具 举报

   发表回复

您需要登录后才可以回帖 登录 | 立即注册

返回列表 本版积分规则

  • 在线客服

  • 返回顶部