微博 微信

Hao4K影音

电影频道
电影封面:
片  名: Higher.Love
电影分类: 纪录片 
国  家: 美国 
年  代: 2020年
分 辨 率: 4K(3840x2160)
电影格式: MKV|REMUX 
画质标准: SDR 
音质编码: Dolby Digital Audio 
电影声道: 5.1声道 
帧数/FPS: 23.976 帧
电影语言: 英文原版 
资源大小: 6.68 GB
导  演: -
豆瓣评分: 7.9 分
中文字幕: -
剧情简介: -
Higher.Love.2020.2160p.WEB-DL.x265.10bit.SDR.DD5.1纪录片信息
  1. Video
  2. ID : 1
  3. Format : HEVC
  4. Format/Info : High Efficiency Video Coding
  5. Format profile : Main 10@L5@High
  6. Codec ID : V_MPEGH/ISO/HEVC
  7. Duration : 1 h 17 min
  8. Bit rate : 11.9 Mb/s
  9. Width : 3 836 pixels
  10. Height : 2 156 pixels
  11. Display aspect ratio : 16:9
  12. Frame rate mode : Constant
  13. Frame rate : 23.976 FPS
  14. Color space : YUV
  15. Chroma subsampling : 4:2:0
  16. Bit depth : 10 bits
  17. Bits/(Pixel*Frame) : 0.060
  18. Stream size : 6.47 GiB (97%)
  19. Language : English
  20. Default : Yes
  21. Forced : No
  22. Color range : Limited
  23. Color primaries : BT.709
  24. Transfer characteristics : BT.709
  25. Matrix coefficients : BT.709

  26. Audio
  27. ID : 2
  28. Format : AC-3
  29. Format/Info : Audio Coding 3
  30. Commercial name : Dolby Digital
  31. Codec ID : A_AC3
  32. Duration : 1 h 17 min
  33. Bit rate mode : Constant
  34. Bit rate : 384 kb/s
  35. Channel(s) : 6 channels
  36. Channel layout : L R C LFE Ls Rs
  37. Sampling rate : 48.0 kHz
  38. Frame rate : 31.250 FPS (1536 SPF)
  39. Compression mode : Lossy
  40. Stream size : 214 MiB (3%)
  41. Language : English
  42. Service kind : Complete Main
  43. Default : Yes
  44. Forced : No

  45. Text
  46. ID : 3
  47. Format : UTF-8
  48. Codec ID : S_TEXT/UTF8
  49. Codec ID/Info : UTF-8 Plain Text
  50. Duration : 1 h 17 min
  51. Bit rate : 92 b/s
  52. Count of elements : 1143
  53. Stream size : 52.0 KiB (0%)
  54. Title : (SDH)
  55. Language : English
  56. Default : No
  57. Forced : No
复制代码

Higher.Love.2020.2160p.WEB-DL.x265.10bit.SDR.DD5.1纪录片下载
Higher.Love.2020.2160p.WEB-DL.x265.10bit.SDR.DD5.1【6.68GB】
[Hao4k]Higher.Love.2020.2160p.WEB-DL.x265.10bit.SDR.DD5.1-ROCCaT.torrent (17.34 KB, 售价: 2 个K币)
回复

使用道具 举报

全部回复4

shcnbzjz 发表于 2021-8-23 21:28:32

shcnbzjz 2

2021-8-23 21:28:32

不知道中文字幕有没有
回复 支持 反对

使用道具 举报

thp181200 发表于 2021-8-23 21:31:39

thp181200 3

2021-8-23 21:31:39

值得收藏。。。。。。。。。。。。。
回复 支持 0 反对 1

使用道具 举报

WOAI4KDY 发表于 2021-8-24 08:57:52

WOAI4KDY 4

2021-8-24 08:57:52

不知纪录什么的
回复 支持 反对

使用道具 举报

留佩 发表于 2021-8-26 10:43:19

留佩 5

2021-8-26 10:43:19

一句话介绍一下内容啊
回复 支持 反对

使用道具 举报

   发表回复

您需要登录后才可以回帖 登录 | 立即注册

返回列表 本版积分规则

  • 在线客服

  • 返回顶部