微博 微信

Hao4K影音

电影频道
电影封面:
片  名: 抓马抓马4k
电影分类: 喜剧 其他 
国  家: 美国 
年  代: 2020年
分 辨 率: 4K(3840x2160)
电影格式: MKV|REMUX 
画质标准: SDR 
音质编码: Dolby Digital Audio 
电影声道: 5.1声道 
帧数/FPS: 23.976 帧
电影语言: 英文原版 
资源大小: 7.80 GB
导  演: Jonathan Wysocki
豆瓣评分: 6.8 分
中文字幕: -
剧情简介: In 1994, a closeted teen struggles to part ways with his 4 high school drama friends at their final murder mystery party before they leave for college.
抓马抓马4k Dramarama.2020.2160p.WEB-DL.x265.10bit.SDR.DD5.1-4k电影信息
  1. Video
  2. ID : 1
  3. Format : HEVC
  4. Format/Info : High Efficiency Video Coding
  5. Format profile : Main 10@L5@High
  6. Codec ID : V_MPEGH/ISO/HEVC
  7. Duration : 1 h 30 min
  8. Bit rate : 11.9 Mb/s
  9. Width : 3 840 pixels
  10. Height : 2 030 pixels
  11. Display aspect ratio : 1.892
  12. Frame rate mode : Constant
  13. Frame rate : 23.976 FPS
  14. Color space : YUV
  15. Chroma subsampling : 4:2:0
  16. Bit depth : 10 bits
  17. Bits/(Pixel*Frame) : 0.064
  18. Stream size : 7.56 GiB (97%)
  19. Default : Yes
  20. Forced : No
  21. Color range : Limited
  22. Color primaries : BT.709
  23. Transfer characteristics : BT.709
  24. Matrix coefficients : BT.709

  25. Audio
  26. ID : 2
  27. Format : AC-3
  28. Format/Info : Audio Coding 3
  29. Commercial name : Dolby Digital
  30. Codec ID : A_AC3
  31. Duration : 1 h 30 min
  32. Bit rate mode : Constant
  33. Bit rate : 384 kb/s
  34. Channel(s) : 6 channels
  35. Channel layout : L R C LFE Ls Rs
  36. Sampling rate : 48.0 kHz
  37. Frame rate : 31.250 FPS (1536 SPF)
  38. Compression mode : Lossy
  39. Stream size : 250 MiB (3%)
  40. Title : English
  41. Language : English
  42. Service kind : Complete Main
  43. Default : No
  44. Forced : No

  45. Text
  46. ID : 3
  47. Format : UTF-8
  48. Codec ID : S_TEXT/UTF8
  49. Codec ID/Info : UTF-8 Plain Text
  50. Duration : 1 h 30 min
  51. Bit rate : 68 b/s
  52. Count of elements : 1728
  53. Stream size : 45.2 KiB (0%)
  54. Language : English
  55. Default : Yes
  56. Forced : No
复制代码


抓马抓马4k Dramarama.2020.2160p.WEB-DL.x265.10bit.SDR.DD5.1-4k电影下载

抓马抓马4k Dramarama.2020.2160p.WEB-DL.x265.10bit.SDR.DD5.1【4k 2160p SDR 7.80 GB】
[Hao4k]抓马抓马4k Dramarama.2020.2160p.WEB-DL.x265.10bit.SDR.DD5.1-NOGRP.torrent (20.14 KB)
回复

使用道具 举报

全部回复4

dengke118 发表于 2021-9-7 08:41:06

dengke118 2

2021-9-7 08:41:06

不错的影片,谢谢楼主分享!
回复 支持 反对

使用道具 举报

老虎兄弟 发表于 2021-9-7 10:56:20

老虎兄弟 3

2021-9-7 10:56:20

按照音译应该是《抓马拉马》吧?呵呵~
回复 支持 反对

使用道具 举报

liyun80000 发表于 2021-9-7 13:56:39

liyun80000 4

2021-9-7 13:56:39

超级喜爱,谢谢楼主分享
回复 支持 反对

使用道具 举报

sun120192 发表于 2021-9-11 13:35:03

sun120192 5

2021-9-11 13:35:03

感谢分享,这个有字幕吗
回复 支持 反对

使用道具 举报

   发表回复

您需要登录后才可以回帖 登录 | 立即注册

返回列表 本版积分规则

  • 在线客服

  • 返回顶部