微博 微信

Hao4K影音

电影频道
电影封面:
片  名: 偷窥者4K
电影分类: 惊悚 
国  家: 美国 
年  代: 2021年
分 辨 率: 4K(3840x2160)
电影格式: MKV|REMUX 
画质标准: HDR10 
音质编码: Dolby Digital Plus Audio 
电影声道: 5.1声道 
帧数/FPS: 23.976 帧
电影语言: 中文繁体 英文原版 
资源大小: 12.73 GB
导  演: 迈克尔·莫汉
豆瓣评分:
中文字幕: -
剧情简介: Pippa and Thomas move into their dream apartment, they notice that their windows look directly into the apartment opposite - inviting them to witness the volatile relationship of the attractive couple across the street. But when they attempt to anonymously intercede in their lives, they unwittingly set in motion a chain of events that will lead to disaster.
偷窥程魔/偷窥者4K.The.Voyeurs.2021.2160p.AMZN.WEB-DL.x265.10bit.HDR10Plus.DDP5.1-4k电影信息
  1. Video
  2. ID : 1
  3. Format : HEVC
  4. Format/Info : High Efficiency Video Coding
  5. Format profile : Main 10@L5@Main
  6. HDR format : SMPTE ST 2094 App 4, Version 1, HDR10+ Profile B compatible
  7. Codec ID : V_MPEGH/ISO/HEVC
  8. Duration : 1 h 56 min
  9. Bit rate : 14.9 Mb/s
  10. Width : 3 840 pixels
  11. Height : 1 600 pixels
  12. Display aspect ratio : 2.40:1
  13. Frame rate mode : Constant
  14. Frame rate : 23.976 (24000/1001) FPS
  15. Color space : YUV
  16. Chroma subsampling : 4:2:0
  17. Bit depth : 10 bits
  18. Bits/(Pixel*Frame) : 0.101
  19. Stream size : 12.1 GiB (96%)
  20. Default : Yes
  21. Forced : No
  22. Color range : Limited
  23. Color primaries : BT.2020
  24. Transfer characteristics : PQ
  25. Matrix coefficients : BT.2020 non-constant
  26. Mastering display color primaries : Display P3
  27. Mastering display luminance : min: 0.0001 cd/m2, max: 1000 cd/m2
  28. Maximum Content Light Level : 1036 cd/m2
  29. Maximum Frame-Average Light Level : 481 cd/m2

  30. Audio
  31. ID : 2
  32. Format : E-AC-3
  33. Format/Info : Enhanced AC-3
  34. Commercial name : Dolby Digital Plus
  35. Codec ID : A_EAC3
  36. Duration : 1 h 56 min
  37. Bit rate mode : Constant
  38. Bit rate : 640 kb/s
  39. Channel(s) : 6 channels
  40. Channel layout : L R C LFE Ls Rs
  41. Sampling rate : 48.0 kHz
  42. Frame rate : 31.250 FPS (1536 SPF)
  43. Compression mode : Lossy
  44. Stream size : 533 MiB (4%)
  45. Title : English
  46. Language : English
  47. Service kind : Complete Main
  48. Default : Yes
  49. Forced : No

  50. Text #1
  51. ID : 3
  52. Format : UTF-8
  53. Codec ID : S_TEXT/UTF8
  54. Codec ID/Info : UTF-8 Plain Text
  55. Duration : 1 h 55 min
  56. Bit rate : 76 b/s
  57. Count of elements : 1141
  58. Stream size : 64.7 KiB (0%)
  59. Title : Arabic
  60. Language : Arabic
  61. Default : No
  62. Forced : No

  63. Text #2
  64. ID : 4
  65. Format : UTF-8
  66. Codec ID : S_TEXT/UTF8
  67. Codec ID/Info : UTF-8 Plain Text
  68. Duration : 1 h 55 min
  69. Bit rate : 39 b/s
  70. Count of elements : 1141
  71. Stream size : 33.5 KiB (0%)
  72. Title : Chinese (Simplified)
  73. Language : Chinese
  74. Default : No
  75. Forced : No

  76. Text #3
  77. ID : 5
  78. Format : UTF-8
  79. Codec ID : S_TEXT/UTF8
  80. Codec ID/Info : UTF-8 Plain Text
  81. Duration : 1 h 55 min
  82. Bit rate : 38 b/s
  83. Count of elements : 1141
  84. Stream size : 32.7 KiB (0%)
  85. Title : Chinese (Traditional)
  86. Language : Chinese
  87. Default : No
  88. Forced : No

  89. Text #4
  90. ID : 6
  91. Format : UTF-8
  92. Codec ID : S_TEXT/UTF8
  93. Codec ID/Info : UTF-8 Plain Text
  94. Duration : 1 h 55 min
  95. Bit rate : 38 b/s
  96. Count of elements : 1137
  97. Stream size : 32.2 KiB (0%)
  98. Title : Czech
  99. Language : Czech
  100. Default : No
  101. Forced : No

  102. Text #5
  103. ID : 7
  104. Format : UTF-8
  105. Codec ID : S_TEXT/UTF8
  106. Codec ID/Info : UTF-8 Plain Text
  107. Duration : 1 h 54 min
  108. Bit rate : 39 b/s
  109. Count of elements : 1134
  110. Stream size : 32.6 KiB (0%)
  111. Title : Danish
  112. Language : Danish
  113. Default : No
  114. Forced : No

  115. Text #6
  116. ID : 8
  117. Format : UTF-8
  118. Codec ID : S_TEXT/UTF8
  119. Codec ID/Info : UTF-8 Plain Text
  120. Duration : 1 h 54 min
  121. Bit rate : 40 b/s
  122. Count of elements : 1134
  123. Stream size : 34.0 KiB (0%)
  124. Title : Dutch
  125. Language : Dutch
  126. Default : No
  127. Forced : No

  128. Text #7
  129. ID : 9
  130. Format : UTF-8
  131. Codec ID : S_TEXT/UTF8
  132. Codec ID/Info : UTF-8 Plain Text
  133. Duration : 1 h 48 min
  134. Bit rate : 52 b/s
  135. Count of elements : 1443
  136. Stream size : 42.1 KiB (0%)
  137. Title : English
  138. Language : English
  139. Default : No
  140. Forced : No

  141. Text #8
  142. ID : 10
  143. Format : UTF-8
  144. Codec ID : S_TEXT/UTF8
  145. Codec ID/Info : UTF-8 Plain Text
  146. Duration : 1 h 46 min
  147. Bit rate : 0 b/s
  148. Count of elements : 15
  149. Stream size : 420 Bytes (0%)
  150. Title : English Forced
  151. Language : English
  152. Default : No
  153. Forced : Yes

  154. Text #9
  155. ID : 11
  156. Format : UTF-8
  157. Codec ID : S_TEXT/UTF8
  158. Codec ID/Info : UTF-8 Plain Text
  159. Duration : 1 h 55 min
  160. Bit rate : 60 b/s
  161. Count of elements : 1815
  162. Stream size : 51.5 KiB (0%)
  163. Title : English SDH
  164. Language : English
  165. Default : No
  166. Forced : No

  167. Menu
  168. 00:00:00.000 : Amazon Studios
  169. 00:00:22.000 : Scene 2
  170. 00:00:53.000 : Opening Credits
  171. 00:01:46.000 : Scene 4
  172. 00:03:27.000 : Scene 5
  173. 00:07:29.000 : Scene 6
  174. 00:09:54.000 : Scene 7
  175. 00:11:24.000 : Scene 8
  176. 00:15:59.000 : Scene 9
  177. 00:22:45.000 : Scene 10
  178. 00:23:44.000 : Scene 11
  179. 00:26:21.000 : Scene 12
  180. 00:31:51.000 : Scene 13
  181. 00:36:07.000 : Scene 14
  182. 00:41:06.000 : Scene 15
  183. 00:43:29.000 : Scene 16
  184. 00:46:04.000 : Scene 17
  185. 00:53:16.000 : Scene 18
  186. 00:54:55.000 : Scene 19
  187. 01:01:34.000 : Scene 20
  188. 01:05:34.000 : Scene 21
  189. 01:16:22.000 : Scene 22
  190. 01:25:24.000 : Scene 23
  191. 01:27:00.000 : Scene 24
  192. 01:28:20.000 : Scene 25
  193. 01:29:11.000 : Scene 26
  194. 01:35:34.000 : Scene 27
  195. 01:38:57.000 : Scene 28
  196. 01:40:53.000 : Scene 29
  197. 01:47:00.000 : Scene 30
  198. 01:47:43.000 : Scene 31
  199. 01:49:11.000 : End Credits
  200. Trailer:         Play trailer
复制代码

偷窥程魔/偷窥者4K.The.Voyeurs.2021.2160p.AMZN.WEB-DL.x265.10bit.HDR10Plus.DDP5.1-4K电影下载

偷窥者4K.The.Voyeurs.2021.2160p.AMZN.WEB-DL.x265.10bit.HDR10Plus.DDP5.1 【4K HDR 12.73 GB】
[Hao4K]偷窥者4K.The.Voyeurs.2021.2160p.AMZN.WEB-DL.x265.10bit.HDR10Plus.DDP5.1-T.torrent (16.68 KB, 售价: 2 个K币)

偷窥者4K.The.Voyeurs.2021.2160p.AMZN.WEB-DL.x265.10bit.HDR10Plus.DDP5.1 【4K HDR 12.73 GB】
迅雷云不限速下载链接:https://pan.xunlei.com/s/VMjDgSVXaZT_byWP5oMi-mYzA1
提取码:
提取码.txt (144 Bytes, 售价: 2 个K币)
分享到:  QQ好友和群QQ好友和群

网站提醒:

1、交流前,请认真阅读并遵守Hao4K影音《论坛总规则》,违者禁言扣除积分处理;同时欢迎大家共同监督,举报有奖;
2、所有信息发布必须严格遵守中华人民共和国所有法律法规及本地和行业相关规定,严禁发布带有任何违法或违规色彩信息;
3、如果内容对您有帮助,请点赞或评论表示感谢。如有不同观点欢迎讨论,但请尊重作者及其贡献内容,不欢迎任何理由的人身攻击,讨论事情勿针对人。

回复

使用道具 举报

全部回复37

2
thp181200 发表于 2021-9-10 09:57:47

thp181200 2

2021-9-10 09:57:47

新资源,谢谢分享
回复 支持 反对

使用道具 举报

3
犹豫不决 发表于 2021-9-10 10:02:39

犹豫不决 3

2021-9-10 10:02:39

链接任务只完成2%,什么情况?
回复 支持 反对

使用道具 举报

4
ttyjwfbk 发表于 2021-9-10 10:11:24

ttyjwfbk 4

2021-9-10 10:11:24

没有字幕!
回复 支持 反对

使用道具 举报

5
lgc0224 发表于 2021-9-10 10:19:21

lgc0224 5

2021-9-10 10:19:21

顶顶顶顶顶顶顶顶顶顶 感谢

免费评分

参与人数 1K币 -5 收起 理由
花落无声 -5 违反论坛规则:无阅读意义内容(第五章第5条)

查看全部评分

回复 支持 0 反对 1

使用道具 举报

6
青衫烟雨 发表于 2021-9-10 10:30:24

青衫烟雨 6

2021-9-10 10:30:24

犹豫不决 发表于 2021-9-10 10:02
链接任务只完成2%,什么情况?

新资源,115这些还要等等,可以先用BT下载软件下载
回复 支持 反对

使用道具 举报

7
青衫烟雨 发表于 2021-9-10 10:30:47

青衫烟雨 7

2021-9-10 10:30:47


有中文字幕的
回复 支持 反对

使用道具 举报

8
kskchn 发表于 2021-9-10 10:34:22

kskchn 8

2021-9-10 10:34:22

豆瓣评分6.5
回复 支持 反对

使用道具 举报

9
BerryLee 发表于 2021-9-10 12:22:11

BerryLee 9

2021-9-10 12:22:11

这个网站简直是太棒了,太喜欢了
回复 支持 反对

使用道具 举报

10
Dohn 发表于 2021-9-10 12:48:02

Dohn 10

2021-9-10 12:48:02

感谢楼主 感谢分享 非常感谢 太感谢了
回复 支持 反对

使用道具 举报

11
wxguo 发表于 2021-9-10 17:25:20

wxguo 11

2021-9-10 17:25:20

谢谢分享电影!
回复 支持 反对

使用道具 举报

12
lendy567 发表于 2021-9-10 17:57:45

lendy567 12

2021-9-10 17:57:45

顶顶顶顶顶顶顶
回复 支持 反对

使用道具 举报

13
mengweiran 发表于 2021-9-10 18:47:26

mengweiran 13

2021-9-10 18:47:26

谢谢分享
回复 支持 反对

使用道具 举报

14
烟雨猴 发表于 2021-9-10 20:36:09

烟雨猴 14

2021-9-10 20:36:09

可以可以的,不错不错的
回复 支持 反对

使用道具 举报

15
bbgrnnji 发表于 2021-9-10 21:15:00

bbgrnnji 15

2021-9-10 21:15:00

谢谢楼主分享
回复 支持 反对

使用道具 举报

16
ll4027 发表于 2021-9-10 21:16:09

ll4027 16

2021-9-10 21:16:09

新电影不知道有没有中文字幕
回复 支持 反对

使用道具 举报

17
rkulzh 发表于 2021-9-10 21:18:24

rkulzh 17

2021-9-10 21:18:24


谢谢楼主分享
回复 支持 反对

使用道具 举报

18
sdwhp1123 发表于 2021-9-10 21:21:35

sdwhp1123 18

2021-9-10 21:21:35

好资源,顶
回复 支持 反对

使用道具 举报

   发表回复

您需要登录后才可以回帖 登录 | 立即注册

返回列表 本版积分规则

  • 在线客服

  • 返回顶部