微博 微信

Hao4K影音

电影频道
电影封面:
片  名: 实习生4k
电影分类: 喜剧 
国  家: 美国 
年  代: 2015年
分 辨 率: 4K(3840x2160)
电影格式: MKV|REMUX 
画质标准: HDR Dolby Vision 
音质编码: Dolby Digital Audio 
电影声道: 5.1声道 
帧数/FPS: 3.976 帧
电影语言: 英文原版 
资源大小: 21.17 GB
导  演: 南希·迈耶斯
豆瓣评分: 8.0 分
中文字幕: -
剧情简介: 年近七十的本(罗伯特·德尼罗 Robert De Niro 饰)曾经是一位精明强干,事业有成的商人,最终,他还是和大部分老年人一样开始了平淡的退休生活。本对忙碌而又充实的过去无比怀念,孤独与内心里蠢蠢欲动的渴望让他做出了重回职场的决定,成为了年轻的朱尔斯(安妮·海瑟薇 Anne Hathaway 饰)手下的一名小小员工。
  朱利安年纪虽轻却是一家著名时尚购物网站的创办人,为了事业,她牺牲了自己全部的业余时间和感情生活,这份事业带给了朱利安荣耀,却也成为了她肩上沉重的负担,更糟的是,公司董事会已经开始怀疑,朱利安是否能够胜任她目前的职位了。起初,朱利安并没有将年迈又落伍的本放在眼里,然而,随着时间的推移,这位慈祥的长者渐渐成为了她生活中最真挚的友人。
高年级实习生(台) / 见习冇限耆(港)/实习生4k The.Intern.2015.2160p.WEB-DL.DD5.1.DV.MP4.x265电影信息
  1. Video
  2. ID : 1
  3. Format : HEVC
  4. Format/Info : High Efficiency Video Coding
  5. Format profile : Main 10@L5@High
  6. HDR format : Dolby Vision, Version 1.0, dvhe.05.06, BL+RPU
  7. Codec ID : dvhe
  8. Codec ID/Info : High Efficiency Video Coding with Dolby Vision
  9. Duration : 2 h 1 min
  10. Bit rate : 24.5 Mb/s
  11. Width : 3 840 pixels
  12. Height : 2 160 pixels
  13. Display aspect ratio : 16:9
  14. Frame rate mode : Constant
  15. Frame rate : 23.976 (24000/1001) FPS
  16. Color space : YUV
  17. Chroma subsampling : 4:2:0
  18. Bit depth : 10 bits
  19. Bits/(Pixel*Frame) : 0.123
  20. Stream size : 20.8 GiB (98%)
  21. Default : Yes
  22. Alternate group : 1
  23. Encoded date : UTC 2021-10-04 05:11:42
  24. Tagged date : UTC 2021-10-04 05:24:00
  25. Codec configuration box : hvcC+dvcC

  26. Audio
  27. ID : 2
  28. Format : AC-3
  29. Format/Info : Audio Coding 3
  30. Commercial name : Dolby Digital
  31. Codec ID : ac-3
  32. Duration : 2 h 1 min
  33. Bit rate mode : Constant
  34. Bit rate : 384 kb/s
  35. Maximum bit rate : 406 kb/s
  36. Channel(s) : 6 channels
  37. Channel layout : L R C LFE Ls Rs
  38. Sampling rate : 48.0 kHz
  39. Frame rate : 31.250 FPS (1536 SPF)
  40. Compression mode : Lossy
  41. Stream size : 334 MiB (2%)
  42. Language : English
  43. Service kind : Complete Main
  44. Encoded date : UTC 2021-10-04 05:08:51
  45. Tagged date : UTC 2021-10-04 05:24:00

  46. Text #1
  47. ID : 3
  48. Format : Timed Text
  49. Codec ID : tx3g
  50. Duration : 1 h 56 min
  51. Bit rate mode : Variable
  52. Bit rate : 95 b/s
  53. Stream size : 81.3 KiB (0%)
  54. Language : English
  55. Forced : No
  56. Encoded date : UTC 2021-10-04 05:14:41
  57. Tagged date : UTC 2021-10-04 05:24:00

  58. Text #2
  59. ID : 4
  60. Format : Timed Text
  61. Codec ID : tx3g
  62. Duration : 1 h 56 min
  63. Bit rate mode : Variable
  64. Bit rate : 102 b/s
  65. Stream size : 87.4 KiB (0%)
  66. Title : SDH
  67. Language : English
  68. Forced : No
  69. Encoded date : UTC 2021-10-04 05:14:41
  70. Tagged date : UTC 2021-10-04 05:24:00

  71. Text #3
  72. ID : 5
  73. Format : Timed Text
  74. Codec ID : tx3g
  75. Duration : 1 h 56 min
  76. Bit rate mode : Variable
  77. Bit rate : 115 b/s
  78. Stream size : 98.0 KiB (0%)
  79. Language : Arabic
  80. Forced : No
  81. Encoded date : UTC 2021-10-04 05:14:42
  82. Tagged date : UTC 2021-10-04 05:24:00

  83. Text #4
  84. ID : 6
  85. Format : Timed Text
  86. Codec ID : tx3g
  87. Duration : 1 h 56 min
  88. Bit rate mode : Variable
  89. Bit rate : 127 b/s
  90. Stream size : 108 KiB (0%)
  91. Language : Bulgarian
  92. Forced : No
  93. Encoded date : UTC 2021-10-04 05:14:43
  94. Tagged date : UTC 2021-10-04 05:24:00

  95. Text #5
  96. ID : 7
  97. Format : Timed Text
  98. Codec ID : tx3g
  99. Duration : 1 h 56 min
  100. Bit rate mode : Variable
  101. Bit rate : 77 b/s
  102. Stream size : 66.0 KiB (0%)
  103. Title : Simplified
  104. Language : Chinese
  105. Forced : No
  106. Encoded date : UTC 2021-10-04 05:14:43
  107. Tagged date : UTC 2021-10-04 05:24:00

  108. Text #6
  109. ID : 8
  110. Format : Timed Text
  111. Codec ID : tx3g
  112. Duration : 1 h 56 min
  113. Bit rate mode : Variable
  114. Bit rate : 73 b/s
  115. Stream size : 62.1 KiB (0%)
  116. Title : Traditional
  117. Language : Chinese
  118. Forced : No
  119. Encoded date : UTC 2021-10-04 05:14:44
  120. Tagged date : UTC 2021-10-04 05:24:00

  121. Text #7
  122. ID : 9
  123. Format : Timed Text
  124. Codec ID : tx3g
  125. Duration : 1 h 56 min
  126. Bit rate mode : Variable
  127. Bit rate : 79 b/s
  128. Stream size : 67.2 KiB (0%)
  129. Language : Czech
  130. Forced : No
  131. Encoded date : UTC 2021-10-04 05:14:44
  132. Tagged date : UTC 2021-10-04 05:24:00

  133. Text #8
  134. ID : 10
  135. Format : Timed Text
  136. Codec ID : tx3g
  137. Duration : 1 h 56 min
  138. Bit rate mode : Variable
  139. Bit rate : 66 b/s
  140. Stream size : 56.1 KiB (0%)
  141. Language : Danish
  142. Forced : No
  143. Encoded date : UTC 2021-10-04 05:14:45
  144. Tagged date : UTC 2021-10-04 05:24:00

  145. Text #9
  146. ID : 11
  147. Format : Timed Text
  148. Codec ID : tx3g
  149. Duration : 1 h 56 min
  150. Bit rate mode : Variable
  151. Bit rate : 97 b/s
  152. Stream size : 82.8 KiB (0%)
  153. Language : German
  154. Forced : No
  155. Encoded date : UTC 2021-10-04 05:14:45
  156. Tagged date : UTC 2021-10-04 05:24:00
复制代码

高年级实习生(台) / 见习冇限耆(港)/实习生4k The.Intern.2015.2160p.WEB-DL.DD5.1.DV.MP4.x265电影下载

实习生4k The.Intern.2015.2160p.WEB-DL.DD5.1.DV.MP4.x265【 4k 杜比视界 21.17 GB】
[Hao4k]实习生4k The.Intern.2015.2160p.WEB-DL.DD5.1.DV.MP4.x265-TEPES.torrent (27.08 KB, 售价: 2 个K币)
回复

使用道具 举报

全部回复12

ggy860 发表于 2021-10-5 12:11:50

ggy860 2

2021-10-5 12:11:50

感谢楼主分享
回复 支持 反对

使用道具 举报

hhhz 发表于 2021-10-5 19:28:24

hhhz 3

2021-10-5 19:28:24

感谢楼主分享好片!
回复 支持 反对

使用道具 举报

shengfan007 发表于 2021-10-6 11:50:58 Hao4K手机版

shengfan007 4

2021-10-6 11:50:58

第二个种子是什么格式?哪位大神知道?先谢谢
回复 支持 反对

使用道具 举报

shengfan007 发表于 2021-10-6 11:53:31 Hao4K手机版

shengfan007 5

2021-10-6 11:53:31

第一个是MP4,第三个是MKV,第二个没有标注。
回复 支持 反对

使用道具 举报

player007 发表于 2021-10-6 19:49:26

player007 6

2021-10-6 19:49:26

第三个颜色不对
回复 支持 反对

使用道具 举报

pentium450 发表于 2021-10-6 22:27:16

pentium450 7

2021-10-6 22:27:16

评分很高啊,感谢分享!
回复 支持 反对

使用道具 举报

peter86k 发表于 2021-10-9 10:15:50

peter86k 8

2021-10-9 10:15:50

为人处世的经典影片 真心不错
回复 支持 反对

使用道具 举报

jy02587636 发表于 7 天前

jy02587636 9

7 天前

shengfan007 发表于 2021-10-6 11:50
第二个种子是什么格式?哪位大神知道?先谢谢

你好,第二个是MKV
回复 支持 反对

使用道具 举报

jy02587636 发表于 7 天前

jy02587636 10

7 天前


麻烦问下哪个好一点?
回复 支持 反对

使用道具 举报

GordenHo 发表于 6 天前

GordenHo 11

6 天前

自带字幕的吗?
回复 支持 反对

使用道具 举报

player007 发表于 6 天前

player007 12

6 天前

jy02587636 发表于 2021-10-10 18:20
麻烦问下哪个好一点?

第二个颜色正常,但不是杜比视界
回复 支持 反对

使用道具 举报

xv6950 发表于 昨天 10:16

xv6950 13

昨天 10:16

感谢楼主分享好片!
回复 支持 反对

使用道具 举报

   发表回复

您需要登录后才可以回帖 登录 | 立即注册

返回列表 本版积分规则

  • 在线客服

  • 返回顶部