微博 微信 APP

Hao4K影音

电影频道
电影封面:
片  名: Soho区惊魂夜4K
电影分类: 恐怖 悬疑 
国  家: 英国 
年  代: 2021年
分 辨 率: 4K(3840x2160)
电影格式: MKV|REMUX 
画质标准: HDR SDR 
音质编码: Dolby Digital Plus Audio 
电影声道: 5.1声道 
帧数/FPS: 23.976 帧
电影语言: 英文原版 
资源大小: 12.43 GB
导  演: 埃德加·赖特
豆瓣评分: 7.3 分
中文字幕: -
剧情简介: 一个对时装设计充满激情的年轻女孩神秘地进入了20世纪60年代,在那里她遇到了自己的偶像,一个令人眼花缭乱的准歌手。但上世纪60年代的伦敦并不是它看起来的那样,时间似乎随着阴暗的后果而分崩离析。
苏豪的最后一夜(港) / 迷离夜苏活(台)/Soho区惊魂夜4K.Last.Night.in.Soho.2021.2160p.WEB-DL.x265.10bit.HDR.DDP5.1.Atmos-4k电影信息
  1. Video
  2. ID : 1
  3. Format : HEVC
  4. Format/Info : High Efficiency Video Coding
  5. Format profile : Main 10@L5@High
  6. HDR format : SMPTE ST 2086, HDR10 compatible
  7. Codec ID : V_MPEGH/ISO/HEVC
  8. Duration : 1 h 56 min
  9. Bit rate : 14.4 Mb/s
  10. Width : 3 836 pixels
  11. Height : 1 602 pixels
  12. Display aspect ratio : 2.40:1
  13. Frame rate mode : Constant
  14. Frame rate : 23.976 FPS
  15. Color space : YUV
  16. Chroma subsampling : 4:2:0 (Type 2)
  17. Bit depth : 10 bits
  18. Bits/(Pixel*Frame) : 0.098
  19. Stream size : 11.8 GiB (95%)
  20. Default : Yes
  21. Forced : No
  22. Color range : Limited
  23. Color primaries : BT.2020
  24. Transfer characteristics : PQ
  25. Matrix coefficients : BT.2020 non-constant
  26. Mastering display color primaries : BT.2020
  27. Mastering display luminance : min: 0.0050 cd/m2, max: 1000 cd/m2
  28. Maximum Content Light Level : 9013 cd/m2
  29. Maximum Frame-Average Light Level : 426 cd/m2

  30. Audio
  31. ID : 2
  32. Format : E-AC-3 JOC
  33. Format/Info : Enhanced AC-3 with Joint Object Coding
  34. Commercial name : Dolby Digital Plus with Dolby Atmos
  35. Codec ID : A_EAC3
  36. Duration : 1 h 57 min
  37. Bit rate mode : Constant
  38. Bit rate : 768 kb/s
  39. Channel(s) : 6 channels
  40. Channel layout : L R C LFE Ls Rs
  41. Sampling rate : 48.0 kHz
  42. Frame rate : 31.250 FPS (1536 SPF)
  43. Compression mode : Lossy
  44. Stream size : 643 MiB (5%)
  45. Title : British English
  46. Language : English
  47. Service kind : Complete Main
  48. Default : No
  49. Forced : No
  50. Complexity index : 16
  51. Number of dynamic objects : 15
  52. Bed channel count : 1 channel
  53. Bed channel configuration : LFE

  54. Text #1
  55. ID : 3
  56. Format : UTF-8
  57. Codec ID : S_TEXT/UTF8
  58. Codec ID/Info : UTF-8 Plain Text
  59. Duration : 1 h 54 min
  60. Bit rate : 60 b/s
  61. Count of elements : 1883
  62. Stream size : 50.3 KiB (0%)
  63. Language : English
  64. Default : Yes
  65. Forced : No

  66. Text #2
  67. ID : 4
  68. Format : UTF-8
  69. Codec ID : S_TEXT/UTF8
  70. Codec ID/Info : UTF-8 Plain Text
  71. Duration : 1 h 54 min
  72. Bit rate : 54 b/s
  73. Count of elements : 1726
  74. Stream size : 45.9 KiB (0%)
  75. Title : Spanish
  76. Language : Spanish
  77. Default : No
  78. Forced : No
复制代码

苏豪的最后一夜(港) / 迷离夜苏活(台)/Soho区惊魂夜4K.Last.Night.in.Soho.2021.2160p.WEB-DL.x265.10bit.HDR.DDP5.1.Atmos-4K电影下载

Soho区惊魂夜4K.Last.Night.in.Soho.2021.2160p.WEB-DL.x265.10bit.HDR.DDP5.1.Atmos【4K HDR 12.43 GB】
[Hao4K]Soho区惊魂夜4K.Last.Night.in.Soho.2021.2160p.WEB-DL.x265.10bit.HDR.DDP5.1.Atmos-NOGRP.torrent (16.2 KB, 售价: 3 个K币)
回复

使用道具 举报

   发表回复

您需要登录后才可以回帖 登录 | 立即注册

返回列表 本版积分规则

  • 发布新帖

  • 客服/帮助

  • 手机APP

  • 返回顶部