微博 微信 手机APP

Hao4K影音

电影频道
电影封面:
片  名: 亚当斯一家2 4k
电影分类: 喜剧 奇幻 动画 
国  家: 美国 
年  代: 2021年
分 辨 率: 4K(3840x2160)
电影格式: MKV|REMUX 
画质标准: HDR10 
音质编码: Dolby Digital Plus Audio 
电影声道: 5.1声道 
帧数/FPS: 23.976 帧
电影语言: 英文原版 
资源大小: 9.46 GB
导  演: 格雷格·蒂曼 / 康拉德·弗农
豆瓣评分: 6.0 分
中文字幕: -
剧情简介: 动画电影版《亚当斯一家》将拍续集。这部黑暗哥特喜剧刚在北美上映,票房上佳(首周4天3500万美元),米高梅/联美发行公司趁热宣布:《亚当斯一家2》正式定档2021年10月22日北美上映。
爱登士家庭2(港) / 阿达一族2(台)/亚当斯一家2 4k.The.Addams.Family.2.2021.2160p.WEB-DL.x265.10bit.HDR.DDP5.1-4k电影信息
  1. Video
  2. ID : 1
  3. Format : HEVC
  4. Format/Info : High Efficiency Video Coding
  5. Format profile : Main 10@L5@High
  6. HDR format : SMPTE ST 2086, HDR10 compatible
  7. Codec ID : V_MPEGH/ISO/HEVC
  8. Duration : 1 h 32 min
  9. Bit rate : 14.0 Mb/s
  10. Width : 3 832 pixels
  11. Height : 2 068 pixels
  12. Display aspect ratio : 1.85:1
  13. Frame rate mode : Constant
  14. Frame rate : 23.976 FPS
  15. Color space : YUV
  16. Chroma subsampling : 4:2:0 (Type 2)
  17. Bit depth : 10 bits
  18. Bits/(Pixel*Frame) : 0.073
  19. Stream size : 9.04 GiB (96%)
  20. Language : English
  21. Default : Yes
  22. Forced : No
  23. Color range : Limited
  24. Color primaries : BT.2020
  25. Transfer characteristics : PQ
  26. Matrix coefficients : BT.2020 non-constant
  27. Mastering display color primaries : BT.2020
  28. Mastering display luminance : min: 0.0050 cd/m2, max: 1000 cd/m2
  29. Maximum Content Light Level : 3910 cd/m2
  30. Maximum Frame-Average Light Level : 836 cd/m2

  31. Audio
  32. ID : 2
  33. Format : E-AC-3
  34. Format/Info : Enhanced AC-3
  35. Commercial name : Dolby Digital Plus
  36. Codec ID : A_EAC3
  37. Duration : 1 h 32 min
  38. Bit rate mode : Constant
  39. Bit rate : 640 kb/s
  40. Channel(s) : 6 channels
  41. Channel layout : L R C LFE Ls Rs
  42. Sampling rate : 48.0 kHz
  43. Frame rate : 31.250 FPS (1536 SPF)
  44. Compression mode : Lossy
  45. Stream size : 424 MiB (4%)
  46. Title : English
  47. Language : English
  48. Service kind : Complete Main
  49. Default : No
  50. Forced : No

  51. Text #1
  52. ID : 3
  53. Format : UTF-8
  54. Codec ID : S_TEXT/UTF8
  55. Codec ID/Info : UTF-8 Plain Text
  56. Duration : 1 h 27 min
  57. Bit rate : 56 b/s
  58. Count of elements : 1437
  59. Stream size : 36.1 KiB (0%)
  60. Language : English
  61. Default : Yes
  62. Forced : No

  63. Text #2
  64. ID : 4
  65. Format : UTF-8
  66. Codec ID : S_TEXT/UTF8
  67. Codec ID/Info : UTF-8 Plain Text
  68. Duration : 1 h 27 min
  69. Bit rate : 80 b/s
  70. Count of elements : 1870
  71. Stream size : 51.8 KiB (0%)
  72. Title : SDH
  73. Language : English
  74. Default : No
  75. Forced : No
复制代码

爱登士家庭2(港) / 阿达一族2(台)/亚当斯一家2 4k.The.Addams.Family.2.2021.2160p.WEB-DL.x265.10bit.HDR.DDP5.1-4k电影下载

亚当斯一家2 4k.The.Addams.Family.2.2021.2160p.WEB-DL.x265.10bit.HDR.DDP5.1【4k HDR 9.46 GB】
[Hao4k]亚当斯一家2 4k.The.Addams.Family.2.2021.2160p.WEB-DL.x265.10bit.HDR.DDP5.1-NOGRP.torrent (24.3 KB, 售价: 2 个K币)
回复

使用道具 举报

全部回复6

night1 21-11-23 11:27 显示全部楼层

night1 2

21-11-23 11:27

有点意思哈,谢谢楼主!!!
回复 支持 反对

使用道具 举报

burningbla 3

21-11-23 21:38

一很好看,看看2
回复 支持 反对

使用道具 举报

jzy878 21-11-23 22:26 显示全部楼层

jzy878 4

21-11-23 22:26

再等等有没有杜比视界版本
回复 支持 反对

使用道具 举报

les5332295 5

21-11-24 07:21

好像没有杜比,谢谢分享
回复 支持 反对

使用道具 举报

adai502 21-11-24 12:47 显示全部楼层

adai502 6

21-11-24 12:47

字幕再哪里下载呢?
回复 支持 反对

使用道具 举报

adai502 21-11-27 22:35 显示全部楼层

adai502 7

21-11-27 22:35

有中文字幕吗
回复 支持 反对

使用道具 举报

   发表回复

您需要登录后才可以回帖 登录 | 立即注册

返回列表 本版积分规则

  • 发布新帖

  • 客服/帮助

  • 手机APP

  • 返回顶部