微博 微信 APP

Hao4K影音

电影频道
电影封面:
片  名: 麦克白的悲剧
电影分类: 剧情 
国  家: 美国 
年  代: 2021年
分 辨 率: 4K(3840x2160)
电影格式: MKV|REMUX 
画质标准: HDR 
音质编码: Dolby Digital Plus Audio 
电影声道: 5.1声道 
帧数/FPS: 2.976 帧
电影语言: 中文简体 中文繁体 英文原版 
资源大小: 17.90 GB
导  演: 乔尔·科恩
豆瓣评分: 7.9 分
中文字幕: -
剧情简介: 影片以华盛顿饰演的麦克白为主线,他被三个女巫说服,认为自己注定要成为苏格兰国王。他和野心勃勃的妻子麦克白夫人(麦克多蒙德饰)一起,开始把预言变成现实……结果是大量的鲜血、背叛和死亡。格里森饰演国王邓肯,米尔林饰演邓肯的儿子马尔科姆,霍金斯饰演麦克达夫。布鲁诺·德尔邦内尔([醉乡民谣])担任摄影师。
Macbeth/麦克白的悲剧4K.The.Tragedy.of.Macbeth.2021.2160p.ATVP.WEB-DL.x265.10bit.HDR.DD5.1.Atmos-4k电影信息
  1. Video
  2. ID : 1
  3. Format : HEVC
  4. Format/Info : High Efficiency Video Coding
  5. Format profile : Main 10@L5@High
  6. HDR format : SMPTE ST 2086, HDR10 compatible
  7. Codec ID : V_MPEGH/ISO/HEVC
  8. Duration : 1 h 45 min
  9. Bit rate : 23.6 Mb/s
  10. Width : 2 956 pixels
  11. Height : 2 160 pixels
  12. Display aspect ratio : 4:3
  13. Frame rate mode : Constant
  14. Frame rate : 23.976 FPS
  15. Color space : YUV
  16. Chroma subsampling : 4:2:0 (Type 2)
  17. Bit depth : 10 bits
  18. Bits/(Pixel*Frame) : 0.154
  19. Stream size : 17.3 GiB (97%)
  20. Language : English
  21. Default : Yes
  22. Forced : No
  23. Color range : Limited
  24. Color primaries : BT.2020
  25. Transfer characteristics : PQ
  26. Matrix coefficients : BT.2020 non-constant
  27. Mastering display color primaries : Display P3
  28. Mastering display luminance : min: 0.0050 cd/m2, max: 1000 cd/m2
  29. Maximum Content Light Level : 760 cd/m2
  30. Maximum Frame-Average Light Level : 207 cd/m2

  31. Audio
  32. ID : 2
  33. Format : E-AC-3 JOC
  34. Format/Info : Enhanced AC-3 with Joint Object Coding
  35. Commercial name : Dolby Digital Plus with Dolby Atmos
  36. Codec ID : A_EAC3
  37. Duration : 1 h 45 min
  38. Bit rate mode : Constant
  39. Bit rate : 768 kb/s
  40. Channel(s) : 6 channels
  41. Channel layout : L R C LFE Ls Rs
  42. Sampling rate : 48.0 kHz
  43. Frame rate : 31.250 FPS (1536 SPF)
  44. Compression mode : Lossy
  45. Stream size : 578 MiB (3%)
  46. Language : English
  47. Service kind : Complete Main
  48. Default : Yes
  49. Forced : No
  50. Complexity index : 16
  51. Number of dynamic objects : 15
  52. Bed channel count : 1 channel
  53. Bed channel configuration : LFE

  54. Text #1
  55. ID : 3
  56. Format : UTF-8
  57. Codec ID : S_TEXT/UTF8
  58. Codec ID/Info : UTF-8 Plain Text
  59. Duration : 1 h 39 min
  60. Bit rate : 75 b/s
  61. Count of elements : 1346
  62. Stream size : 55.4 KiB (0%)
  63. Language : English
  64. Default : No
  65. Forced : No

  66. Text #2
  67. ID : 4
  68. Format : UTF-8
  69. Codec ID : S_TEXT/UTF8
  70. Codec ID/Info : UTF-8 Plain Text
  71. Duration : 1 h 41 min
  72. Bit rate : 80 b/s
  73. Count of elements : 1487
  74. Stream size : 60.0 KiB (0%)
  75. Title : SDH
  76. Language : English
  77. Default : No
  78. Forced : No

  79. Text #3
  80. ID : 5
  81. Format : UTF-8
  82. Codec ID : S_TEXT/UTF8
  83. Codec ID/Info : UTF-8 Plain Text
  84. Duration : 1 h 44 min
  85. Bit rate : 95 b/s
  86. Count of elements : 1349
  87. Stream size : 73.3 KiB (0%)
  88. Language : Arabic
  89. Default : No
  90. Forced : No

  91. Text #4
  92. ID : 6
  93. Format : UTF-8
  94. Codec ID : S_TEXT/UTF8
  95. Codec ID/Info : UTF-8 Plain Text
  96. Duration : 1 h 44 min
  97. Bit rate : 112 b/s
  98. Count of elements : 1266
  99. Stream size : 86.3 KiB (0%)
  100. Language : Bulgarian
  101. Default : No
  102. Forced : No

  103. Text #5
  104. ID : 7
  105. Format : UTF-8
  106. Codec ID : S_TEXT/UTF8
  107. Codec ID/Info : UTF-8 Plain Text
  108. Duration : 1 h 44 min
  109. Bit rate : 67 b/s
  110. Count of elements : 1349
  111. Stream size : 51.7 KiB (0%)
  112. Title : Simplified
  113. Language : Chinese
  114. Default : No
  115. Forced : No

  116. Text #6
  117. ID : 8
  118. Format : UTF-8
  119. Codec ID : S_TEXT/UTF8
  120. Codec ID/Info : UTF-8 Plain Text
  121. Duration : 1 h 44 min
  122. Bit rate : 61 b/s
  123. Count of elements : 1350
  124. Stream size : 47.0 KiB (0%)
  125. Title : Traditional
  126. Language : Chinese
  127. Default : No
  128. Forced : No
复制代码

Macbeth/麦克白的悲剧4K.The.Tragedy.of.Macbeth.2021.2160p.ATVP.WEB-DL.x265.10bit.HDR.DD5.1.Atmos-4K电影下载

麦克白的悲剧4K.The.Tragedy.of.Macbeth.2021.2160p.ATVP.WEB-DL.x265.10bit.HDR.DD5.1.Atmos-简繁中字【4K HDR 17.90 GB】
[Hao4K]麦克白的悲剧4K.The.Tragedy.of.Macbeth.2021.2160p.ATVP.WEB-DL.x265.10bit.HDR.DD5.1.Atmos-TEPES.torrent (23.05 KB, 售价: 2 个K币)
回复

使用道具 举报

全部回复4

duyao123 2

22-1-14 11:54

丹泽尔华盛顿!
回复 支持 反对

使用道具 举报

全金属外壳 3

22-1-14 12:46

科恩兄弟哥哥乔尔.科恩作品,先尝个鲜,接下来等remux
回复 支持 反对

使用道具 举报

hhhz 22-1-14 19:01 显示全部楼层

hhhz 4

22-1-14 19:01

分数蛮高,下来看看。
回复 支持 反对

使用道具 举报

dengke118 5

22-1-15 15:13

谢谢分享,顶你!!!
回复 支持 反对

使用道具 举报

   发表回复

您需要登录后才可以回帖 登录 | 立即注册

返回列表 本版积分规则

  • 发布新帖

  • 客服/帮助

  • 手机APP

  • 返回顶部