专注4K家庭影音, 服务千万家庭影音发烧友!

八佰4k.The.Eight.Hundred.2020.2160p.WEB-DL.4K.HDR.HEVC.DDP5.1-Hao4KWeb-4k电影下载

   
857220 632
青衫烟雨 发表于 2020-11-1 14:39:16 | 只看该作者
电影频道
电影封面:
片  名: 八佰4k
电影分类: 战争 剧情 历史 
国  家: 中国大陆 
年  代: 2020年
分 辨 率: 4K(3840x2160)
电影格式: MKV|REMUX 
画质标准: HDR 
音质编码: 其他AAC 
电影声道: 其他 
帧数/FPS: 23.694 FPS
电影语言: 中文繁体 
资源大小: 17.50 GB
导  演: 管虎
豆瓣评分: 7.7 分
中文字幕: -
剧情简介:  1937年淞沪会战的最后一役,“八百壮士”奉命坚守上海四行仓库,以少敌多顽强抵抗四天四夜。电影《八佰》由管虎导演,是亚洲首部全片使用IMAX摄影机拍摄的商业电影,将于2020年8月21日全国影院上映。
八百启示录 / 战争启示录之八百壮士 / The Eight Hundred/八佰4k The Eight Hundred 2020 WEB-DL 4K HDR HEVC DDP5.1-4k电影下载

  1. General
  2. Unique ID                      : 41505518951813126057809221267476244623 (0x1F39AC14082C14ACD7F6CD0A0DA0E88F)
  3. Complete name                  : Z:\电影\Hao4k\八佰4k.The.Eight.Hundred.2020.2160p.WEB-DL.4K.HDR.HEVC.DDP5.1-Hao4KWeb.mkv
  4. Format                         : Matroska
  5. Format version                 : Version 4
  6. File size                      : 17.5 GiB
  7. Duration                       : 2 h 28 min
  8. Overall bit rate               : 16.9 Mb/s
  9. Encoded date                   : UTC 2020-11-01 03:48:02
  10. Writing application            : mkvmerge v51.0.0 ('I Wish') 64-bit
  11. Writing library                : libebml v1.4.0 + libmatroska v1.6.2

  12. Video
  13. ID                             : 1
  14. Format                         : HEVC
  15. Format/Info                    : High Efficiency Video Coding
  16. Format profile                 : Main 10@L5@High
  17. Codec ID                       : V_MPEGH/ISO/HEVC
  18. Duration                       : 2 h 28 min
  19. Bit rate                       : 16.6 Mb/s
  20. Width                          : 3 840 pixels
  21. Height                         : 1 616 pixels
  22. Display aspect ratio           : 2.40:1
  23. Frame rate mode                : Constant
  24. Frame rate                     : 24.000 FPS
  25. Color space                    : YUV
  26. Chroma subsampling             : 4:2:0
  27. Bit depth                      : 10 bits
  28. Bits/(Pixel*Frame)             : 0.112
  29. Stream size                    : 17.2 GiB (98%)
  30. Default                        : Yes
  31. Forced                         : No
  32. Color range                    : Limited
  33. Color primaries                : BT.2020
  34. Transfer characteristics       : PQ
  35. Matrix coefficients            : BT.2020 non-constant
  36. Maximum Content Light Level    : 885 cd/m2
  37. Maximum Frame-Average Light Le : 332 cd/m2

  38. Audio
  39. ID                             : 2
  40. Format                         : E-AC-3
  41. Format/Info                    : Enhanced AC-3
  42. Commercial name                : Dolby Digital Plus
  43. Codec ID                       : A_EAC3
  44. Duration                       : 2 h 28 min
  45. Bit rate mode                  : Constant
  46. Bit rate                       : 256 kb/s
  47. Channel(s)                     : 6 channels
  48. Channel layout                 : L R C LFE Ls Rs
  49. Sampling rate                  : 48.0 kHz
  50. Frame rate                     : 31.250 FPS (1536 SPF)
  51. Compression mode               : Lossy
  52. Stream size                    : 272 MiB (2%)
  53. Service kind                   : Complete Main
  54. Default                        : Yes
  55. Forced                         : No
复制代码


八佰4k.The.Eight.Hundred.2020.2160p.WEB-DL.4K.HDR.HEVC.DDP5.1-Hao4KWeb【17.50 GB】
八佰4k.The.Eight.Hundred.2020.2160p.WEB-DL.4K.HDR.HEVC.DDP5.1-Hao4KWeb.torrent
(52 KB, 售价: 8 K币)


八佰4k.The.Eight.Hundred.2020.2160p.WEB-DL.4K.HEVC.DDP5.1-Hao4KWeb【17.50 GB】
八佰4k.The.Eight.Hundred.2020.2160p.WEB-DL.4K.HEVC.DDP5.1-Hao4KWeb.torrent
(52.03 KB, 售价: 8 K币)


下载不了必然是自己操作问题,有问题请到4k新手学院去学习,谢谢。
由于是第一时间发布新种,115网盘还需等待才可满速离线。


全球所有破解蓝光原盘4K UHD电影:
https://www.hao4k.cn/zt/4kuhd.html

评分

参与人数 3H币 +6 收起 理由
BJM2018 + 2
momo17951 + 2 赞一个!
农夫山泉 + 2 谢谢分享!

查看全部评分

回复

使用道具 举报

发烧友评论632

倒序浏览
跳转到指定楼层
632#
s262626s 发表于 昨天 21:17 | 只看该作者
牛比,收下了
回复 支持 反对

使用道具 举报

631#
zhuibu1987 发表于 昨天 16:52 | 只看该作者
感谢分享,买了新电视,疯狂下载4K
回复 支持 反对

使用道具 举报

630#
yumingzhu622 发表于 昨天 15:56 | 只看该作者
谢谢分享呀
回复 支持 反对

使用道具 举报

629#
gxlbpda 发表于 昨天 10:09 | 只看该作者
虽然不下载,但是支持分享!!!!!!!
回复 支持 反对

使用道具 举报

628#
seawind1107 发表于 前天 22:52 | 只看该作者

        谢谢分享!
回复 支持 反对

使用道具 举报

627#
zou0318 发表于 前天 17:40 | 只看该作者

可以欣赏了,好电影就是好享受,谢谢楼主分享
回复 支持 反对

使用道具 举报

626#
safingh 发表于 前天 14:52 | 只看该作者
        谢谢分享!
回复 支持 反对

使用道具 举报

625#
jackfourpeng 发表于 前天 14:50 | 只看该作者
可以欣赏了,好电影就是好享受,谢谢楼主分享
回复 支持 反对

使用道具 举报

623#
人在江湖7788 发表于 前天 13:58 | 只看该作者
        谢谢分享!,太及时了!
回复 支持 反对

使用道具 举报

622#
人在江湖7788 发表于 前天 13:57 | 只看该作者
        谢谢分享!
回复 支持 反对

使用道具 举报

621#
jacket68866 发表于 前天 12:57 | 只看该作者
感谢资源分享
回复 支持 反对

使用道具 举报

620#
WOODY666 发表于 前天 12:35 | 只看该作者

谢谢分享及时的资源
回复 支持 反对

使用道具 举报

619#
paddlepaddle 发表于 前天 10:35 | 只看该作者
非圆盘都这么贵,要八个币
回复 支持 反对

使用道具 举报

618#
一面湖水2057 发表于 前天 08:08 Hao4K手机版 | 只看该作者
非常感谢您的分享!
回复 支持 反对

使用道具 举报

617#
xyd63396 发表于 3 天前 | 只看该作者
好电影就是好享受,谢谢楼主分享
回复 支持 反对

使用道具 举报

615#
michael_jaguar 发表于 3 天前 | 只看该作者
支持一下,感谢楼主!!
回复 支持 反对

使用道具 举报

您需要登录后才可以回帖 登录 | 立即注册

本版积分规则

在线客服

在线客服

服务时间 9:00—18:00

返回顶部

关注微信公众号第一时间推送精彩

官方微信

手机访问

Hao4K影音

专注4k家庭影音,提供家庭影音社区,家庭影音器材库,影音问答平台,影音商城,服务千万家庭影音用户。

本站内容部分由用户自主分享和转载自互联网,转载目的在于传递更多信息,并不代表本网赞同其观点和对其真实性负责。

如有侵权、违反国家法律政策行为,请联系我们,我们会第一时间及时清除和处理!

举报反馈邮箱:admin@hao4k.cn

Copyright  2019-2020  Hao4K影音粤公网安备 44030302001429号    ( 粤ICP备18155646号-1 )|网站地图