微博 微信

Hao4K影音

电影频道
电影封面:
片  名: 噪声终极播放列表4k
电影分类: 剧情 
国  家: 美国 
年  代: 2021年
分 辨 率: 4K(3840x2160)
电影格式: MKV|REMUX 
画质标准: 其他 
音质编码: Dolby Digital Plus Audio 其他DD 
电影声道: 5.1声道 
帧数/FPS: 24.000 FPS
电影语言: 英文原版 
资源大小: 10.55 GB
导  演: Bennett Lasseter
豆瓣评分:
中文字幕: -
剧情简介: Marcus, an audio obsessed high school senior who learns he must undergo brain surgery that will render him deaf, he decides to seize control of his fate by recording the Ultimate Playlist of Noise .
噪声终极播放列表4k The.Ultimate.Playlist.of.Noise.2021.2160p.HULU.WEBRip.DDP5.1.x265.电影下载
  1. Video
  2. ID : 1
  3. Format : HEVC
  4. Format/Info : High Efficiency Video Coding
  5. Format profile : Main 10@L5.1@Main
  6. Codec ID : V_MPEGH/ISO/HEVC
  7. Duration : 1 h 39 min
  8. Bit rate : 14.9 Mb/s
  9. Width : 3 840 pixels
  10. Height : 2 160 pixels
  11. Display aspect ratio : 16:9
  12. Frame rate mode : Constant
  13. Frame rate : 24.000 FPS
  14. Color space : YUV
  15. Chroma subsampling : 4:2:0
  16. Bit depth : 10 bits
  17. Bits/(Pixel*Frame) : 0.075
  18. Stream size : 10.4 GiB (98%)
  19. Default : Yes
  20. Forced : No

  21. Audio
  22. ID : 2
  23. Format : E-AC-3
  24. Format/Info : Enhanced AC-3
  25. Commercial name : Dolby Digital Plus
  26. Codec ID : A_EAC3
  27. Duration : 1 h 39 min
  28. Bit rate mode : Constant
  29. Bit rate : 256 kb/s
  30. Channel(s) : 6 channels
  31. Channel layout : L R C LFE Ls Rs
  32. Sampling rate : 48.0 kHz
  33. Frame rate : 31.250 FPS (1536 SPF)
  34. Compression mode : Lossy
  35. Stream size : 182 MiB (2%)
  36. Title : English
  37. Language : English
  38. Service kind : Complete Main
  39. Default : No
  40. Forced : No

  41. Text #1
  42. ID : 3
  43. Format : UTF-8
  44. Codec ID : S_TEXT/UTF8
  45. Codec ID/Info : UTF-8 Plain Text
  46. Duration : 1 h 38 min
  47. Bit rate : 56 b/s
  48. Count of elements : 1284
  49. Stream size : 40.6 KiB (0%)
  50. Title : English
  51. Language : English
  52. Default : No
  53. Forced : No

  54. Text #2
  55. ID : 4
  56. Format : UTF-8
  57. Codec ID : S_TEXT/UTF8
  58. Codec ID/Info : UTF-8 Plain Text
  59. Duration : 1 h 37 min
  60. Bit rate : 61 b/s
  61. Count of elements : 1356
  62. Stream size : 43.7 KiB (0%)
  63. Title : Spanish
  64. Language : Spanish
  65. Default : No
  66. Forced : No
复制代码

噪声终极播放列表4k The.Ultimate.Playlist.of.Noise.2021.2160p.HULU.WEBRip.DDP5.1.x265.电影下载

噪声终极播放列表4k The.Ultimate.Playlist.of.Noise.2021.2160p.HULU.WEBRip.DDP5.1.x265【10.55 GB】
[Hao4k]噪声终极播放列表4k The.Ultimate.Playlist.of.Noise.2021.2160p.HULU.WEBRip..torrent (53.3 KB)
回复

使用道具 举报

全部回复34

123zzy 发表于 2021-1-15 17:01:08 Hao4K手机版

123zzy 板凳

2021-1-15 17:01:08

hulu的电影向来小众,好多都没有字幕,甚至有些电视剧也没有
回复 支持 反对

使用道具 举报

bbgrnnji 发表于 2021-1-15 17:58:16

bbgrnnji 地板

2021-1-15 17:58:16

这个名字还是很特别的
回复 支持 反对

使用道具 举报

concord3303 发表于 2021-1-15 18:44:08

concord3303 5#

2021-1-15 18:44:08

感谢楼主分享
回复 支持 反对

使用道具 举报

dyczw 发表于 2021-1-16 07:14:10

dyczw 6#

2021-1-16 07:14:10

感谢分享,辛苦了
回复 支持 反对

使用道具 举报

budong1682008 发表于 2021-1-16 08:56:49 Hao4K手机版

budong1682008 7#

2021-1-16 08:56:49

这部电影大小合适
回复 支持 反对

使用道具 举报

jsszksxq 发表于 2021-1-16 10:30:54

jsszksxq 9#

2021-1-16 10:30:54

感谢楼主分享
回复 支持 反对

使用道具 举报

cb917918 发表于 2021-1-16 11:21:19

cb917918 11#

2021-1-16 11:21:19

感谢分享,辛苦了
回复 支持 反对

使用道具 举报

ywf6168 发表于 2021-1-16 13:08:03 Hao4K手机版

ywf6168 12#

2021-1-16 13:08:03

感谢楼主分享新片
回复 支持 反对

使用道具 举报

Elsapoo 发表于 2021-1-16 15:23:11

Elsapoo 14#

2021-1-16 15:23:11

这片名难道是说弹电吉他等于噪声吗。
回复 支持 反对

使用道具 举报

LENNY9527 发表于 2021-1-16 17:48:08

LENNY9527 15#

2021-1-16 17:48:08

感谢楼主的分享
回复 支持 反对

使用道具 举报

highrpmclub 发表于 2021-1-16 21:20:01

highrpmclub 16#

2021-1-16 21:20:01

谢谢楼主分享资源
回复 支持 反对

使用道具 举报

dragonlei 发表于 2021-1-16 22:34:36

dragonlei 17#

2021-1-16 22:34:36

东西不错,感谢分享。
回复 支持 反对

使用道具 举报

376677748 发表于 2021-1-16 23:45:17 Hao4K手机版

376677748 18#

2021-1-16 23:45:17

谢谢楼主分享好电影。辛苦啦
回复 支持 反对

使用道具 举报

   发表回复

您需要登录后才可以回帖 登录 | 立即注册

返回列表 本版积分规则

  • 在线客服

  • 返回顶部