微博 微信

Hao4K影音

电影频道
电影封面:
片  名: 黑夜造访4K
电影分类: 恐怖 悬疑 
国  家: 美国 
年  代: 2017年
分 辨 率: 4K(3840x2160)
电影格式: MKV|REMUX 
画质标准: HDR 
音质编码: DTS-HD Master Audio 
电影声道: 5.1声道 
帧数/FPS: 23.976 帧
电影语言: 英文原版 
资源大小: 11.91 GB
导  演: 特里·爱德华·沙尔茨
豆瓣评分: 6.0 分
中文字幕: -
剧情简介: 故事发生在末日,病毒肆虐,凡是被感染的人都将被焚化,保罗一家人小心翼翼生活在森林里,突然有一天一个不速之客的造访,让他们的生活天翻地覆....
它在黑夜到访(台)/黑夜造访4K.It.Comes.at.Night.2017.2160p.WEB-DL.x265.10bit.HDR.DTS-HD.MA.5.1-4k电影信息
  1. Video
  2. ID : 1
  3. Format : HEVC
  4. Format/Info : High Efficiency Video Coding
  5. Format profile : Main 10@L5@Main
  6. HDR format : SMPTE ST 2086, HDR10 compatible
  7. Codec ID : V_MPEGH/ISO/HEVC
  8. Duration : 1 h 31 min
  9. Bit rate : 15.0 Mb/s
  10. Width : 3 840 pixels
  11. Height : 2 160 pixels
  12. Display aspect ratio : 16:9
  13. Frame rate mode : Constant
  14. Frame rate : 24.000 FPS
  15. Color space : YUV
  16. Chroma subsampling : 4:2:0 (Type 2)
  17. Bit depth : 10 bits
  18. Bits/(Pixel*Frame) : 0.075
  19. Stream size : 9.57 GiB (80%)
  20. Writing library : x265 3.0:[Linux][GCC 4.8.5][64 bit] 10bit
  21. Encoding settings : cpuid=1111039 / frame-threads=6 / wpp / no-pmode / no-pme / no-psnr / no-ssim / log-level=2 / input-csp=1 / input-res=3840x2160 / interlace=0 / total-frames=0 / level-idc=50 / high-tier=1 / uhd-bd=0 / ref=3 / no-allow-non-conformance / repeat-headers / annexb / no-aud / no-hrd / info / hash=0 / no-temporal-layers / no-open-gop / min-keyint=48 / keyint=48 / gop-lookahead=0 / bframes=4 / b-adapt=2 / b-pyramid / bframe-bias=0 / rc-lookahead=48 / lookahead-slices=4 / scenecut=40 / radl=0 / no-splice / no-intra-refresh / ctu=64 / min-cu-size=8 / rect / no-amp / max-tu-size=32 / tu-inter-depth=1 / tu-intra-depth=1 / limit-tu=0 / rdoq-level=2 / dynamic-rd=0.00 / no-ssim-rd / signhide / no-tskip / nr-intra=0 / nr-inter=0 / no-constrained-intra / strong-intra-smoothing / max-merge=3 / limit-refs=3 / limit-modes / me=2 / subme=3 / merange=57 / temporal-mvp / weightp / no-weightb / no-analyze-src-pics / deblock=0:0 / no-sao / no-sao-non-deblock / rd=4 / no-early-skip / no-rskip / no-fast-intra / no-tskip-fast / no-cu-lossless / no-b-intra / no-splitrd-skip / rdpenalty=0 / psy-rd=4.00 / psy-rdoq=10.00 / no-rd-refine / no-lossless / cbqpoffs=0 / crqpoffs=0 / rc=abr / bitrate=15000 / qcomp=0.60 / qpstep=1 / stats-write=0 / stats-read=0 / vbv-maxrate=22500 / vbv-bufsize=22500 / vbv-init=0.9 / ipratio=1.10 / pbratio=1.00 / aq-mode=0 / aq-strength=0.00 / no-cutree / zone-count=0 / no-strict-cbr / qg-size=32 / rc-grain / qpmax=69 / qpmin=0 / const-vbv / sar=1 / overscan=0 / videoformat=5 / range=0 / colorprim=9 / transfer=16 / colormatrix=9 / chromaloc=1 / chromaloc-top=2 / chromaloc-bottom=2 / display-window=0 / master-display=G(8500,39850)B(6550,2300)R(35400,14600)WP(15635,16450)L(40000000,10) / max-cll=2586,324 / min-luma=0 / max-luma=1023 / log2-max-poc-lsb=8 / vui-timing-info / vui-hrd-info / slices=1 / no-opt-qp-pps / no-opt-ref-list-length-pps / no-multi-pass-opt-rps / scenecut-bias=0.05 / no-opt-cu-delta-qp / no-aq-motion / hdr / no-hdr-opt / no-dhdr10-opt / no-idr-recovery-sei / analysis-reuse-level=5 / scale-factor=0 / refine-intra=0 / refine-inter=0 / refine-mv=0 / refine-ctu-distortion=0 / no-limit-sao / ctu-info=0 / no-lowpass-dct / refine-analysis-type=0 / copy-pic=1 / max-ausize-factor=1.0 / no-dynamic-refine / no-single-sei / no-hevc-aq / qp-adaptation-range=1.00
  22. Default : Yes
  23. Forced : No
  24. Color range : Limited
  25. Color primaries : BT.2020
  26. Transfer characteristics : PQ
  27. Matrix coefficients : BT.2020 non-constant
  28. Mastering display color primaries : BT.2020
  29. Mastering display luminance : min: 0.0010 cd/m2, max: 4000 cd/m2
  30. Maximum Content Light Level : 2586 cd/m2
  31. Maximum Frame-Average Light Level : 324 cd/m2

  32. Audio #1
  33. ID : 2
  34. Format : DTS XLL
  35. Format/Info : Digital Theater Systems
  36. Commercial name : DTS-HD Master Audio
  37. Codec ID : A_DTS
  38. Duration : 1 h 31 min
  39. Bit rate mode : Variable
  40. Bit rate : 3 390 kb/s
  41. Channel(s) : 6 channels
  42. Channel layout : C L R Ls Rs LFE
  43. Sampling rate : 48.0 kHz
  44. Frame rate : 93.750 FPS (512 SPF)
  45. Bit depth : 24 bits
  46. Compression mode : Lossless
  47. Stream size : 2.17 GiB (18%)
  48. Title : DTS-HD MA 5.1
  49. Language : English
  50. Default : Yes
  51. Forced : No

  52. Audio #2
  53. ID : 3
  54. Format : E-AC-3
  55. Format/Info : Enhanced AC-3
  56. Commercial name : Dolby Digital Plus
  57. Codec ID : A_EAC3
  58. Duration : 1 h 31 min
  59. Bit rate mode : Constant
  60. Bit rate : 256 kb/s
  61. Channel(s) : 6 channels
  62. Channel layout : L R C LFE Ls Rs
  63. Sampling rate : 48.0 kHz
  64. Frame rate : 31.250 FPS (1536 SPF)
  65. Compression mode : Lossy
  66. Stream size : 168 MiB (1%)
  67. Title : DDP 5.1
  68. Language : English
  69. Service kind : Complete Main
  70. Default : No
  71. Forced : No

  72. Text
  73. ID : 4
  74. Format : UTF-8
  75. Codec ID : S_TEXT/UTF8
  76. Codec ID/Info : UTF-8 Plain Text
  77. Duration : 1 h 27 min
  78. Bit rate : 45 b/s
  79. Count of elements : 1207
  80. Stream size : 29.0 KiB (0%)
  81. Title : SRT
  82. Language : English
  83. Default : Yes
  84. Forced : No
复制代码

它在黑夜到访(台)/黑夜造访4K.It.Comes.at.Night.2017.2160p.WEB-DL.x265.10bit.HDR.DTS-HD.MA.5.1-4k电影下载

黑夜造访4K.It.Comes.at.Night.2017.2160p.WEB-DL.x265.10bit.HDR.DTS-HD.MA.5.1【4K HDR 11.91 GB】
[Hao4k]黑夜造访4K.It.Comes.at.Night.2017.2160p.WEB-DL.x265.10bit.HDR.DTS-HD.MA.5.torrent (60.1 KB, 售价: 2 K币)
回复

使用道具 举报

全部回复52

bbgrnnji 发表于 2021-4-3 12:46:02

bbgrnnji 沙发

2021-4-3 12:46:02

谢谢楼主发片
回复 支持 1 反对 0

使用道具 举报

PZJPHR 发表于 2021-4-3 18:41:30

PZJPHR 板凳

2021-4-3 18:41:30

谢谢分享
回复 支持 反对

使用道具 举报

世爵39 发表于 2021-4-3 19:43:03

世爵39 地板

2021-4-3 19:43:03

这是什么题材的影片???
回复 支持 反对

使用道具 举报

世爵39 发表于 2021-4-3 19:46:16

世爵39 5#

2021-4-3 19:46:16

这是什么题材的影片???
回复 支持 反对

使用道具 举报

yale 发表于 2021-4-3 22:45:05

yale 6#

2021-4-3 22:45:05

谢谢分享
回复 支持 反对

使用道具 举报

mccliqiang 发表于 2021-4-3 23:24:35

mccliqiang 7#

2021-4-3 23:24:35

感谢分享~~~~
回复 支持 反对

使用道具 举报

cb917918 发表于 2021-4-4 11:26:41

cb917918 8#

2021-4-4 11:26:41

谢谢楼主的分享
回复 支持 反对

使用道具 举报

andywjhh 发表于 2021-4-4 13:15:09

andywjhh 9#

2021-4-4 13:15:09

好资源很给力
回复 支持 反对

使用道具 举报

concord3303 发表于 2021-4-4 13:17:13

concord3303 10#

2021-4-4 13:17:13

谢谢楼主的分享
回复 支持 反对

使用道具 举报

圣经饼kk 发表于 2021-4-4 14:16:36

圣经饼kk 11#

2021-4-4 14:16:36

感谢分享
回复 支持 反对

使用道具 举报

SoulLost 发表于 2021-4-4 19:05:37

SoulLost 12#

2021-4-4 19:05:37

感谢分享
回复 支持 反对

使用道具 举报

千里驹 发表于 2021-4-4 19:49:17

千里驹 13#

2021-4-4 19:49:17

thank you
回复 支持 反对

使用道具 举报

xxdff 发表于 2021-4-4 20:33:14

xxdff 14#

2021-4-4 20:33:14


这是什么题材的影片???
回复 支持 反对

使用道具 举报

风流的豆子 发表于 2021-4-5 11:29:18

风流的豆子 15#

2021-4-5 11:29:18

感谢分享
回复 支持 反对

使用道具 举报

gravityboy 发表于 2021-4-5 12:01:01

gravityboy 16#

2021-4-5 12:01:01

感谢分享
回复 支持 反对

使用道具 举报

st-enterprise 发表于 2021-4-5 12:34:09

st-enterprise 17#

2021-4-5 12:34:09

感谢分享
回复 支持 反对

使用道具 举报

蛮蛮 发表于 2021-4-5 15:02:42 Hao4K手机版

蛮蛮 18#

2021-4-5 15:02:42

谢谢分享
回复 支持 反对

使用道具 举报

   发表回复

您需要登录后才可以回帖 登录 | 立即注册

返回列表 本版积分规则

  • 在线客服

  • 返回顶部