微博 微信

Hao4K影音

电影频道
电影封面:
片  名: 人之怒4k
电影分类: 动作 犯罪 
国  家: 美国 英国 
年  代: 2021年
分 辨 率: 4K(3840x2160)
电影格式: MKV|REMUX 
画质标准: HDR10 SDR 
音质编码: Dolby Digital Plus Audio 
电影声道: 5.1声道 
帧数/FPS: 23.976 帧
电影语言: 英文原版 
资源大小: 12.88 GB
导  演: 盖·里奇
豆瓣评分: 7.0 分
中文字幕: /thread-57883-1-1.html
剧情简介: 在一次全副武装的运钞车劫案中,梅斯先生(杰森·斯坦森 饰)的儿子作为案发目击者被劫匪杀害。怒火中烧的梅斯为报丧子之仇,化身H卧底成为运钞车安保,试图找出杀害他儿子的劫匪以及与劫匪暗中勾结的安保公司内鬼。
玩命钞劫(台) / 运钞车 / Cash Truck/人之怒4k  Wrath.of.Man.2021.2160p.AMZN.WEB-DL.x265.10bit.HDR10Plus.DDP5.1电影信息
  1. Video
  2. ID : 1
  3. Format : HEVC
  4. Format/Info : High Efficiency Video Coding
  5. Format profile : Main 10@L5@Main
  6. HDR format : SMPTE ST 2094 App 4, Version 1, HDR10+ Profile B compatible
  7. Codec ID : V_MPEGH/ISO/HEVC
  8. Duration : 1 h 58 min
  9. Bit rate : 14.9 Mb/s
  10. Width : 3 840 pixels
  11. Height : 1 600 pixels
  12. Display aspect ratio : 2.40:1
  13. Frame rate mode : Constant
  14. Frame rate : 23.976 (24000/1001) FPS
  15. Color space : YUV
  16. Chroma subsampling : 4:2:0
  17. Bit depth : 10 bits
  18. Bits/(Pixel*Frame) : 0.101
  19. Stream size : 12.4 GiB (96%)
  20. Default : Yes
  21. Forced : No
  22. Color range : Limited
  23. Color primaries : BT.2020
  24. Transfer characteristics : PQ
  25. Matrix coefficients : BT.2020 non-constant
  26. Mastering display color primaries : BT.2020
  27. Mastering display luminance : min: 0.0050 cd/m2, max: 1000 cd/m2
  28. Maximum Content Light Level : 717 cd/m2
  29. Maximum Frame-Average Light Level : 194 cd/m2

  30. Audio
  31. ID : 2
  32. Format : E-AC-3
  33. Format/Info : Enhanced AC-3
  34. Commercial name : Dolby Digital Plus
  35. Codec ID : A_EAC3
  36. Duration : 1 h 58 min
  37. Bit rate mode : Constant
  38. Bit rate : 640 kb/s
  39. Channel(s) : 6 channels
  40. Channel layout : L R C LFE Ls Rs
  41. Sampling rate : 48.0 kHz
  42. Frame rate : 31.250 FPS (1536 SPF)
  43. Compression mode : Lossy
  44. Stream size : 544 MiB (4%)
  45. Title : English
  46. Language : English
  47. Service kind : Complete Main
  48. Default : No
  49. Forced : No

  50. Text #1
  51. ID : 3
  52. Format : UTF-8
  53. Codec ID : S_TEXT/UTF8
  54. Codec ID/Info : UTF-8 Plain Text
  55. Duration : 1 h 50 min
  56. Bit rate : 70 b/s
  57. Count of elements : 1990
  58. Stream size : 56.8 KiB (0%)
  59. Title : English [SDH]
  60. Language : English
  61. Default : No
  62. Forced : No

  63. Text #2
  64. ID : 4
  65. Format : UTF-8
  66. Codec ID : S_TEXT/UTF8
  67. Codec ID/Info : UTF-8 Plain Text
  68. Duration : 1 h 50 min
  69. Bit rate : 63 b/s
  70. Count of elements : 1792
  71. Stream size : 51.5 KiB (0%)
  72. Title : English
  73. Language : English
  74. Default : No
  75. Forced : No
复制代码


玩命钞劫(台) / 运钞车 / Cash Truck/人之怒4k  Wrath.of.Man.2021.2160p.AMZN.WEB-DL.x265.10bit.HDR10Plus.DDP5.1电影下载

请勿使用迅雷下载
下载软件请参考:https://www.hao4k.cn/thread-39114-1-1.html

人之怒4k  Wrath.of.Man.2021.2160p.AMZN.WEB-DL.x265.10bit.HDR10Plus.DDP5.1【4K HDR 12.88 GB】
[Hao4k]人之怒4k Wrath.of.Man.2021.2160p.AMZN.WEB-DL.x265.10bit.HDR10Plus.DDP5.1-CM.torrent (65.07 KB, 售价: 2 K币)

评分

参与人数 1H币 +5 收起 理由
lch8621 + 5 很给力!

查看全部评分

回复

使用道具 举报

全部回复556

jy02420117 发表于 2021-5-25 17:39:58

jy02420117 2

2021-5-25 17:39:58

谢谢楼主分享,幸苦了,真新鲜,就是找不到字幕
回复 支持 3 反对 0

使用道具 举报

8525265 发表于 2021-5-25 17:42:48 Hao4K手机版

8525265 3

2021-5-25 17:42:48

可以的 试试看
回复 支持 反对

使用道具 举报

ken0330 发表于 2021-5-25 17:43:11 Hao4K手机版

ken0330 4

2021-5-25 17:43:11

太赞了。总算有新片了
回复 支持 反对

使用道具 举报

a2458573289 发表于 2021-5-25 17:44:49

a2458573289 5

2021-5-25 17:44:49

谢谢宝贝谢谢了 谢谢楼主分享,幸苦了,真新鲜,就是找不到字幕
回复 支持 1 反对 0

使用道具 举报

哩噜噜噜哩 发表于 2021-5-25 17:45:36

哩噜噜噜哩 6

2021-5-25 17:45:36

爱了爱了
回复 支持 反对

使用道具 举报

lcwh888 发表于 2021-5-25 17:52:25

lcwh888 7

2021-5-25 17:52:25

谢谢分享!速度太快了!
回复 支持 反对

使用道具 举报

花落无声 发表于 2021-5-25 17:56:11

花落无声 8

2021-5-25 17:56:11

1291061304 发表于 2021-5-25 17:41
谢谢分享  好像没有什么速度 是不是服务器问题?

这个是新资源,请用BT下载软件挂机下载,没有速度的话检查自己的下载软件设置或网络问题
回复 支持 1 反对 0

使用道具 举报

kkfyceygah 发表于 2021-5-25 17:58:28

kkfyceygah 9

2021-5-25 17:58:28

先看看过过瘾,
回复 支持 反对

使用道具 举报

chenjinqi 发表于 2021-5-25 18:02:51 Hao4K手机版

chenjinqi 10

2021-5-25 18:02:51

感谢楼主分享,字幕现在还找不到吧
回复 支持 反对

使用道具 举报

luckydog333 发表于 2021-5-25 18:16:09

luckydog333 11

2021-5-25 18:16:09

谢谢分享!速度太快了!
回复 支持 1 反对 0

使用道具 举报

runhandbob 发表于 2021-5-25 18:18:16

runhandbob 12

2021-5-25 18:18:16

感谢楼主分享,辛苦了!!
回复 支持 反对

使用道具 举报

ksd7 发表于 2021-5-25 18:24:06

ksd7 13

2021-5-25 18:24:06


谢谢楼主分享,幸苦了
回复 支持 反对

使用道具 举报

raymondhwm 发表于 2021-5-25 18:26:46

raymondhwm 14

2021-5-25 18:26:46

谢谢楼主分享
回复 支持 反对

使用道具 举报

szp2003 发表于 2021-5-25 18:35:37

szp2003 15

2021-5-25 18:35:37

谢谢楼主分享
回复 支持 反对

使用道具 举报

vadac 发表于 2021-5-25 18:36:51

vadac 16

2021-5-25 18:36:51

谢谢分享666
回复 支持 反对

使用道具 举报

18505767092 发表于 2021-5-25 18:41:25

18505767092 17

2021-5-25 18:41:25

这么快就有高清了,,感谢
回复 支持 反对

使用道具 举报

zengsuo520 发表于 2021-5-25 18:42:53

zengsuo520 18

2021-5-25 18:42:53

感谢楼主分享。
回复 支持 反对

使用道具 举报

   发表回复

您需要登录后才可以回帖 登录 | 立即注册

返回列表 本版积分规则

  • 在线客服

  • 返回顶部