微博 微信

Hao4K影音

电影频道
电影封面:
片  名: 圣诞星4k
电影分类: 冒险 喜剧 动画 
国  家: 美国 
年  代: 2017年
分 辨 率: 4K(3840x2160)
电影格式: MKV|REMUX 
画质标准: HDR HDR10 
音质编码: DTS-HD Master Audio 
电影声道: 5.1声道 
帧数/FPS: 23.976 帧
电影语言: 英文原版 
资源大小: 41.47 GB
导  演: 蒂莫西·锐科特
豆瓣评分: 6.4 分
中文字幕: -
剧情简介:   “The Star”只是个工作代号,并不是这部影片的正式片名。该片原名《羔羊》(The Lamb),由奥斯卡提名动画短片《头朝下的生活》(Head Over Heels)导演蒂莫西·雷克阿特(Timothy Reckart)执导,以一头勇敢的小驴子和他的动物伙伴为主角,从他们的角度描述了耶稣降生的故事。以布偶电影而著称的吉姆·汉森公司(The Jim Henson Company)将和索尼动画一起制作本片。
羔羊 / The Lamb/圣诞星4k The.Star.2017.2160p.BCORE.WEB-DL.x265.10bit.HDR.DTS-HD.MA.5.1.4k电影信息
  1. Video
  2. ID : 1
  3. Format : HEVC
  4. Format/Info : High Efficiency Video Coding
  5. Format profile : Main 10@L5.2@High
  6. HDR format : SMPTE ST 2086, HDR10 compatible
  7. Codec ID : V_MPEGH/ISO/HEVC
  8. Duration : 1 h 26 min
  9. Bit rate : 65.2 Mb/s
  10. Width : 3 840 pixels
  11. Height : 2 160 pixels
  12. Display aspect ratio : 16:9
  13. Frame rate mode : Constant
  14. Frame rate : 23.976 (24000/1001) FPS
  15. Color space : YUV
  16. Chroma subsampling : 4:2:0 (Type 2)
  17. Bit depth : 10 bits
  18. Bits/(Pixel*Frame) : 0.328
  19. Stream size : 39.2 GiB (95%)
  20. Language : English
  21. Default : Yes
  22. Forced : No
  23. Color range : Full
  24. Color primaries : BT.2020
  25. Transfer characteristics : PQ
  26. Matrix coefficients : BT.2020 non-constant
  27. Mastering display color primaries : Display P3
  28. Mastering display luminance : min: 0.0050 cd/m2, max: 4000 cd/m2
  29. Maximum Content Light Level : 4000 cd/m2
  30. Maximum Frame-Average Light Level : 870 cd/m2

  31. Audio #1
  32. ID : 2
  33. Format : DTS XLL
  34. Format/Info : Digital Theater Systems
  35. Commercial name : DTS-HD Master Audio
  36. Codec ID : A_DTS
  37. Duration : 1 h 26 min
  38. Bit rate mode : Variable
  39. Bit rate : 2 229 kb/s
  40. Channel(s) : 6 channels
  41. Channel layout : C L R Ls Rs LFE
  42. Sampling rate : 48.0 kHz
  43. Frame rate : 93.750 FPS (512 SPF)
  44. Bit depth : 16 bits
  45. Compression mode : Lossless
  46. Stream size : 1.34 GiB (3%)
  47. Title : DTS-HD MA 5.1
  48. Language : English
  49. Default : Yes
  50. Forced : No

  51. Audio #2
  52. ID : 3
  53. Format : AC-3
  54. Format/Info : Audio Coding 3
  55. Commercial name : Dolby Digital
  56. Codec ID : A_AC3
  57. Duration : 1 h 26 min
  58. Bit rate mode : Constant
  59. Bit rate : 640 kb/s
  60. Channel(s) : 6 channels
  61. Channel layout : L R C LFE Ls Rs
  62. Sampling rate : 48.0 kHz
  63. Frame rate : 31.250 FPS (1536 SPF)
  64. Compression mode : Lossy
  65. Stream size : 394 MiB (1%)
  66. Title : DD 5.1
  67. Language : English
  68. Service kind : Complete Main
  69. Default : No
  70. Forced : No

  71. Audio #3
  72. ID : 4
  73. Format : DTS
  74. Format/Info : Digital Theater Systems
  75. Codec ID : A_DTS
  76. Duration : 1 h 26 min
  77. Bit rate mode : Constant
  78. Bit rate : 768 kb/s
  79. Channel(s) : 6 channels
  80. Channel layout : C L R Ls Rs LFE
  81. Sampling rate : 48.0 kHz
  82. Frame rate : 93.750 FPS (512 SPF)
  83. Bit depth : 24 bits
  84. Compression mode : Lossy
  85. Stream size : 473 MiB (1%)
  86. Title : DTS 5.1
  87. Language : English
  88. Default : No
  89. Forced : No

  90. Text #1
  91. ID : 5
  92. Format : UTF-8
  93. Codec ID : S_TEXT/UTF8
  94. Codec ID/Info : UTF-8 Plain Text
  95. Duration : 1 h 23 min
  96. Bit rate : 104 b/s
  97. Count of elements : 1676
  98. Stream size : 64.0 KiB (0%)
  99. Title : SRT
  100. Language : English
  101. Default : Yes
  102. Forced : No

  103. Text #2
  104. ID : 6
  105. Format : PGS
  106. Muxing mode : zlib
  107. Codec ID : S_HDMV/PGS
  108. Codec ID/Info : Picture based subtitle format used on BDs/HD-DVDs
  109. Duration : 1 h 18 min
  110. Bit rate : 51.2 kb/s
  111. Count of elements : 2570
  112. Stream size : 28.8 MiB (0%)
  113. Language : English
  114. Default : No
  115. Forced : No

  116. Text #3
  117. ID : 7
  118. Format : PGS
  119. Muxing mode : zlib
  120. Codec ID : S_HDMV/PGS
  121. Codec ID/Info : Picture based subtitle format used on BDs/HD-DVDs
  122. Duration : 1 h 24 min
  123. Bit rate : 60.5 kb/s
  124. Count of elements : 3286
  125. Stream size : 36.4 MiB (0%)
  126. Title : SDH
  127. Language : English
  128. Default : No
  129. Forced : No

  130. Text #4
  131. ID : 8
  132. Format : PGS
  133. Muxing mode : zlib
  134. Codec ID : S_HDMV/PGS
  135. Codec ID/Info : Picture based subtitle format used on BDs/HD-DVDs
  136. Duration : 1 h 26 min
  137. Bit rate : 36.9 kb/s
  138. Count of elements : 2244
  139. Stream size : 22.7 MiB (0%)
  140. Language : French
  141. Default : No
  142. Forced : No
复制代码


羔羊 / The Lamb/圣诞星4k The.Star.2017.2160p.BCORE.WEB-DL.x265.10bit.HDR.DTS-HD.MA.5.1.4k电影下载

圣诞星4k The.Star.2017.2160p.BCORE.WEB-DL.x265.10bit.HDR.DTS-HD.MA.5.1【41.47GB】
[Hao4k]圣诞星4k The.Star.2017.2160p.BCORE.WEB-DL.x265.10bit.HDR.DTS-HD.MA.5.1-SW.torrent (104.35 KB)
回复

使用道具 举报

全部回复15

dyczw 发表于 2021-5-31 06:29:38

dyczw 2

2021-5-31 06:29:38

感谢分享,辛苦了
回复 支持 反对

使用道具 举报

largefish 发表于 2021-5-31 08:17:46

largefish 3

2021-5-31 08:17:46

楼主辛苦了!
回复 支持 反对

使用道具 举报

fudongq210 发表于 2021-5-31 09:15:36

fudongq210 4

2021-5-31 09:15:36

谢谢分享!
回复 支持 反对

使用道具 举报

panbell 发表于 2021-5-31 11:03:09

panbell 5

2021-5-31 11:03:09

谢谢楼主分享
回复 支持 1 反对 0

使用道具 举报

xxw8888 发表于 2021-5-31 12:02:58 Hao4K手机版

xxw8888 6

2021-5-31 12:02:58

谢谢分享
回复 支持 反对

使用道具 举报

月光麦田 发表于 2021-5-31 14:40:15

月光麦田 7

2021-5-31 14:40:15

谢谢分享
回复 支持 反对

使用道具 举报

cdyangjun2019 发表于 2021-5-31 16:26:12

cdyangjun2019 8

2021-5-31 16:26:12

比较喜欢看动画片,谢谢楼主分享
回复 支持 反对

使用道具 举报

wybinhua 发表于 2021-5-31 22:32:03

wybinhua 9

2021-5-31 22:32:03

分享 谢谢,辛苦了
回复 支持 反对

使用道具 举报

shjlwj 发表于 2021-6-2 17:10:17

shjlwj 10

2021-6-2 17:10:17

新人来到,感谢分享。。
回复 支持 反对

使用道具 举报

孟阿二 发表于 2021-6-6 18:43:35

孟阿二 11

2021-6-6 18:43:35

求字幕,谢谢
回复 支持 反对

使用道具 举报

koocool 发表于 7 天前

koocool 12

7 天前

字幕有没有提供的?
回复 支持 反对

使用道具 举报

mo814876560 发表于 5 天前

mo814876560 13

5 天前

谢谢楼主的分享!
回复 支持 反对

使用道具 举报

chenbz 发表于 4 天前

chenbz 14

4 天前

感谢LZ的分享,喜欢这影片。
回复 支持 反对

使用道具 举报

56789trewq 发表于 3 天前

56789trewq 15

3 天前

感謝樓主分享好電影,希望以後還能繼續看到更多的資源!
回复 支持 反对

使用道具 举报

shuergao 发表于 昨天 16:20

shuergao 16

昨天 16:20

谢谢楼主的无私分享 !
回复 支持 反对

使用道具 举报

   发表回复

您需要登录后才可以回帖 登录 | 立即注册

返回列表 本版积分规则

  • 在线客服

  • 返回顶部