微博 微信

Hao4K影音

电影频道
电影封面:
片  名: 人人都在谈论杰米4K
电影分类: 剧情 歌舞 
国  家: 美国 
年  代: 2021年
分 辨 率: 4K(3840x2160)
电影格式: MKV|REMUX 
画质标准: HDR SDR 
音质编码: Dolby Digital Plus Audio 
电影声道: 5.1声道 
帧数/FPS: 23.976 帧
电影语言: 英文原版 
资源大小: 12.59 GB
导  演: 乔纳森·巴特尔
豆瓣评分:
中文字幕: -
剧情简介: 根据真人经历改编,讲述16岁的杰米想成为一位变装皇后,却因此备受霸凌和歧视,在母亲和好友的支持下,他终于勇敢地去实现梦想。
人人都在聊杰米/人人都在谈论杰米4K.Everybodys.Talking.About.Jamie.2021.2160p.AMZN.WEB-DL.x265.10bit.HDR10Plus.DDP5.1-4k电影信息
  1. Video
  2. ID : 1
  3. Format : HEVC
  4. Format/Info : High Efficiency Video Coding
  5. Format profile : Main 10@L5@Main
  6. HDR format : SMPTE ST 2094 App 4, Version 1, HDR10+ Profile B compatible
  7. Codec ID : V_MPEGH/ISO/HEVC
  8. Duration : 1 h 55 min
  9. Bit rate : 14.9 Mb/s
  10. Width : 3 840 pixels
  11. Height : 1 600 pixels
  12. Display aspect ratio : 2.40:1
  13. Frame rate mode : Constant
  14. Frame rate : 24.000 FPS
  15. Color space : YUV
  16. Chroma subsampling : 4:2:0
  17. Bit depth : 10 bits
  18. Bits/(Pixel*Frame) : 0.101
  19. Stream size : 12.1 GiB (96%)
  20. Default : Yes
  21. Forced : No
  22. Color range : Limited
  23. Color primaries : BT.2020
  24. Transfer characteristics : PQ
  25. Matrix coefficients : BT.2020 non-constant
  26. Mastering display color primaries : Display P3
  27. Mastering display luminance : min: 0.0001 cd/m2, max: 1000 cd/m2
  28. Maximum Content Light Level : 691 cd/m2
  29. Maximum Frame-Average Light Level : 466 cd/m2

  30. Audio
  31. ID : 2
  32. Format : E-AC-3
  33. Format/Info : Enhanced AC-3
  34. Commercial name : Dolby Digital Plus
  35. Codec ID : A_EAC3
  36. Duration : 1 h 55 min
  37. Bit rate mode : Constant
  38. Bit rate : 640 kb/s
  39. Channel(s) : 6 channels
  40. Channel layout : L R C LFE Ls Rs
  41. Sampling rate : 48.0 kHz
  42. Frame rate : 31.250 FPS (1536 SPF)
  43. Compression mode : Lossy
  44. Stream size : 530 MiB (4%)
  45. Language : English
  46. Service kind : Complete Main
  47. Default : No
  48. Forced : No

  49. Text
  50. ID : 3
  51. Format : UTF-8
  52. Codec ID : S_TEXT/UTF8
  53. Codec ID/Info : UTF-8 Plain Text
  54. Duration : 1 h 54 min
  55. Bit rate : 87 b/s
  56. Count of elements : 2400
  57. Stream size : 73.9 KiB (0%)
  58. Title : English [SDH]
  59. Language : English
  60. Default : Yes
  61. Forced : No

  62. Menu
  63. 00:00:00.000 : 1. Amazon Original
  64. 00:00:06.000 : 2. Studio Logos
  65. 00:00:45.000 : Scene 3
  66. 00:10:50.000 : Scene 4
  67. 00:12:34.000 : Scene 5
  68. 00:20:01.000 : Scene 6
  69. 00:28:44.000 : Scene 7
  70. 00:31:58.000 : Scene 8
  71. 00:32:51.000 : Scene 9
  72. 00:43:26.000 : Scene 10
  73. 00:46:00.000 : Scene 11
  74. 00:49:46.000 : Scene 12
  75. 00:50:58.000 : Scene 13
  76. 00:57:18.000 : Scene 14
  77. 01:06:30.000 : Scene 15
  78. 01:10:15.000 : Scene 16
  79. 01:11:41.000 : Scene 17
  80. 01:14:00.000 : Scene 18
  81. 01:20:39.000 : Scene 19
  82. 01:21:42.000 : Scene 20
  83. 01:28:25.000 : Scene 21
  84. 01:30:56.000 : Scene 22
  85. 01:36:17.000 : Scene 23
  86. 01:48:14.000 : Scene 24
  87. 01:49:07.000 : 25. End Credits
复制代码

人人都在聊杰米/人人都在谈论杰米4K.Everybodys.Talking.About.Jamie.2021.2160p.AMZN.WEB-DL.x265.10bit.HDR10Plus.DDP5.1-4K电影下载

人人都在谈论杰米4K.Everybodys.Talking.About.Jamie.2021.2160p.AMZN.WEB-DL.x265.10bit.HDR10Plus.DDP5.1【4K HDR 12.59 GB】
[Hao4K]人人都在谈论杰米4KEverybodys.Talking.About.Jamie.2021.2160p.AMZN.WEB-DL.x.torrent (18.33 KB, 售价: 2 个K币)
回复

使用道具 举报

全部回复6

chenhemai 发表于 2021-9-18 09:41:58

chenhemai 2

2021-9-18 09:41:58

谢谢分享
回复 支持 反对

使用道具 举报

dengke118 发表于 2021-9-18 09:42:58

dengke118 3

2021-9-18 09:42:58

好看,谢谢分享!!!
回复 支持 反对

使用道具 举报

coco469 发表于 2021-9-18 10:56:15

coco469 4

2021-9-18 10:56:15

好穷啊没钱买了~~~
回复 支持 反对

使用道具 举报

billy4158 发表于 2021-9-19 21:42:47

billy4158 5

2021-9-19 21:42:47


回帖得K币。
回复 支持 1 反对 0

使用道具 举报

bbgrnnji 发表于 2021-9-20 09:11:28

bbgrnnji 6

2021-9-20 09:11:28

谢谢楼主了
回复 支持 反对

使用道具 举报

ccllvye 发表于 4 天前

ccllvye 7

4 天前

谢谢楼主分享
回复 支持 反对

使用道具 举报

   发表回复

您需要登录后才可以回帖 登录 | 立即注册

返回列表 本版积分规则

  • 在线客服

  • 返回顶部