专注4K家庭影音, 服务千万家庭影音发烧友!

姜子牙4K.Legend.of.Deification.2020.WEB-DL.2160p.杜比视界电影下载

 
420123 324
青衫烟雨 发表于 2020-11-21 15:15:01 | 只看该作者
电影频道
电影封面:
片  名: 姜子牙4K
电影分类: 剧情 奇幻 动画 
国  家: 中国大陆 
年  代: 2020年
分 辨 率: 4K(3840x2160)
电影格式: mp4 
画质标准: Dolby Vision 
音质编码: Dolby Digital Plus Audio 
电影声道: 5.1声道 
帧数/FPS: 23.976 FPS
电影语言: 中文简体 
资源大小: 13.2 GB
导  演: 程腾 / 李炜
豆瓣评分: 6.9 分
中文字幕: -
剧情简介: 故事发生于封神大战后。姜子牙率领众神伐纣,赢得封神大战胜利,以为可以唤回世间安宁。然而,一切并未结束。一个偶然,姜子牙发现了原来“封神大战”之下酝酿着更大的阴谋。姜子牙开始踏上探寻真相的旅途......
Legend of Deification/姜子牙4k.Legend.of.Deification.2020.WEB-DL.2160p.H265.DoblyVision.DDP5.1-杜比视界4k电影信息
  1. General
  2. Complete name                  :Z\Hao4k\姜子牙4k.Legend.of.Deification.2020.WEB-DL.2160p.H265.DoblyVision.DDP5.1-HAO4K\姜子牙4k.Legend.of.Deification.2020.WEB-DL.2160p.H265.DoblyVision.DDP5.1-HAO4K.mp4
  3. Format                         : MPEG-4
  4. Format profile                 : Base Media / Version 2
  5. Codec ID                       : mp42 (mp42/dby1/isom)
  6. File size                      : 13.3 GiB
  7. Duration                       : 1 h 49 min
  8. Overall bit rate               : 17.3 Mb/s
  9. Encoded date                   : UTC 2020-11-19 09:37:22
  10. Tagged date                    : UTC 2020-11-19 09:37:22

  11. Video
  12. ID                             : 1
  13. Format                         : HEVC
  14. Format/Info                    : High Efficiency Video Coding
  15. Format profile                 : Main 10@L5@High
  16. HDR format                     : Dolby Vision, Version 1.0, dvhe.05.06, BL+RPU
  17. Codec ID                       : dvhe
  18. Codec ID/Info                  : High Efficiency Video Coding with Dolby Vision
  19. Duration                       : 1 h 49 min
  20. Bit rate                       : 16.8 Mb/s
  21. Width                          : 3 824 pixels
  22. Height                         : 1 592 pixels
  23. Display aspect ratio           : 2.40:1
  24. Frame rate mode                : Constant
  25. Frame rate                     : 24.000 FPS
  26. Color space                    : YUV
  27. Chroma subsampling             : 4:2:0
  28. Bit depth                      : 10 bits
  29. Bits/(Pixel*Frame)             : 0.115
  30. Stream size                    : 12.9 GiB (97%)
  31. Default                        : Yes
  32. Alternate group                : 1
  33. Encoded date                   : UTC 2020-11-19 09:37:22
  34. Tagged date                    : UTC 2020-11-19 09:37:22
  35. Codec configuration box        : hvcC+dvcC

  36. Audio
  37. ID                             : 2
  38. Format                         : E-AC-3 JOC
  39. Format/Info                    : Enhanced AC-3 with Joint Object Coding
  40. Commercial name                : Dolby Digital Plus with Dolby Atmos
  41. Codec ID                       : ec-3
  42. Duration                       : 1 h 49 min
  43. Bit rate mode                  : Constant
  44. Bit rate                       : 448 kb/s
  45. Channel(s)                     : 6 channels
  46. Channel layout                 : L R C LFE Ls Rs
  47. Sampling rate                  : 48.0 kHz
  48. Frame rate                     : 31.250 FPS (1536 SPF)
  49. Compression mode               : Lossy
  50. Stream size                    : 352 MiB (3%)
  51. Service kind                   : Complete Main
  52. Default                        : Yes
  53. Alternate group                : 2
  54. Encoded date                   : UTC 2020-11-19 09:37:22
  55. Tagged date                    : UTC 2020-11-19 09:37:22
  56. Complexity index               : 16
  57. Number of dynamic objects      : 15
  58. Bed channel count              : 1 channel
  59. Bed channel configuration      : LFE
复制代码
Legend of Deification/姜子牙4k.Legend.of.Deification.2020.WEB-DL.2160p.H265.DoblyVision.DDP5.1-杜比视界4K电影下载
姜子牙4k.Legend.of.Deification.2020.WEB-DL.2160p.H265.DoblyVision.DDP5.1【4K 13.2 GB 】
姜子牙4k.Legend.of.Deification.2020.WEB-DL.2160p.H265.DoblyVision.DDP5.1-Hao4K.torrent
(41.43 KB, 售价: 3 K币)

评分

参与人数 3H币 +6 收起 理由
王卫民OPPO + 2 很给力!
libgem + 2 谢谢分享!
zhengjun2850 + 2 很给力!

查看全部评分

回复

使用道具 举报

发烧友评论324

倒序浏览
跳转到指定楼层
来自 324#
kate5001 发表于 2020-11-21 19:52:08 | 只看该作者
下完了,potplay,mpv player因单层杜比视界颜色不正常,win10自带播放器播放,支持杜比视界,色彩正常。蓝光播放机203播放,能激活杜比视界,亮度明显增加,杜比视界效果明显,索尼A9G/Z8H等新款电视U盘播放也能激活杜比视界。

评分

参与人数 1K币 +20 收起 理由
hao4k + 20 真玩家!!谢谢分享观看心得!

查看全部评分

回复 支持 13 反对 0

使用道具 举报

windows10商店下载哔哩哔哩动画,设置,安装HEVC视频扩展,跳转到商店页面,直接点击安装即可用自带播放器电影与电视观看此杜比视界影片。此方法可以绕过微软商店收费7元人民币的HEVC扩展。

评分

参与人数 2H币 +20 K币 +20 收起 理由
dgmgso + 20 谢谢分享!
hao4k + 20 谢谢分享省钱秘笈!

查看全部评分

回复 支持 10 反对 0

使用道具 举报

322#
hgchina 发表于 半小时前 | 只看该作者
hyz454226914 发表于 2020-11-22 22:11
windows10商店下载哔哩哔哩动画,设置,安装HEVC视频扩展,跳转到商店页面,直接点击安装即可用自带播放器 ...

非常感谢
回复 支持 反对

使用道具 举报

321#
binghe10132 发表于 半小时前 | 只看该作者
9h2x谢分享 下载来试试电视
回复 支持 反对

使用道具 举报

320#
zou0318 发表于 1 小时前 | 只看该作者
hyz454226914 发表于 2020-11-22 22:11
windows10商店下载哔哩哔哩动画,设置,安装HEVC视频扩展,跳转到商店页面,直接点击安装即可用自带播放器 ...

十分感谢,成功获取了,可以正常播放了
回复 支持 反对

使用道具 举报

319#
qwerty-2020 发表于 1 小时前 | 只看该作者
无法播放,只有声音
回复 支持 反对

使用道具 举报

318#
陈大炮 发表于 2 小时前 | 只看该作者
怎么获取这个毕啊???
回复 支持 反对

使用道具 举报

317#
572741838 发表于 5 小时前 | 只看该作者
hyz454226914 发表于 2020-11-22 22:11
windows10商店下载哔哩哔哩动画,设置,安装HEVC视频扩展,跳转到商店页面,直接点击安装即可用自带播放器 ...

感谢分享
回复 支持 反对

使用道具 举报

315#
templars 发表于 7 小时前 Hao4K手机版 | 只看该作者
这个电视能直接解码播放吗?
回复 支持 反对

使用道具 举报

314#
西门惊鸿 发表于 7 小时前 | 只看该作者
连下载带学习,谢谢大家
回复 支持 反对

使用道具 举报

313#
feizjf 发表于 13 小时前 | 只看该作者
beihuigui123 发表于 2020-11-28 21:58
亿瑞格kodi播放只有声音,没有图像,怎么回事?

芝杜Z9S同样用KODI无法播放。
但是自带的可以播放,只是颜色不支持。
回复 支持 反对

使用道具 举报

312#
大慈大悲头 发表于 14 小时前 | 只看该作者
我在新手的道路是曲折的越走越远
回复 支持 反对

使用道具 举报

311#
刘德华爱刘亦菲 发表于 昨天 23:42 Hao4K手机版 | 只看该作者
谢谢好了就可以游戏了
回复 支持 反对

使用道具 举报

310#
beihuigui123 发表于 昨天 21:58 | 只看该作者
亿瑞格kodi播放只有声音,没有图像,怎么回事?
回复 支持 反对

使用道具 举报

309#
lancer120 发表于 昨天 21:23 | 只看该作者
非常感谢分享
回复 支持 反对

使用道具 举报

308#
dgmgso 发表于 昨天 20:41 Hao4K手机版 | 只看该作者
kodi播放只有声音,没有图像。z9s自带的播放器能播放,但是色彩严重不行
回复 支持 反对

使用道具 举报

307#
jimmyzhting 发表于 昨天 20:30 | 只看该作者
电视自带高清播放器可以,点亮杜比视界杜比全景声
回复 支持 反对

使用道具 举报

306#
jimmyzhting 发表于 昨天 20:29 | 只看该作者
芝杜Z9X播放出现色块,电视自带的高清播放器能行,点亮杜比视界,杜比全景声
回复 支持 反对

使用道具 举报

305#
lead23 发表于 昨天 18:08 | 只看该作者

装了,但自带播放器还是黑屏。
回复 支持 1 反对 0

使用道具 举报

您需要登录后才可以回帖 登录 | 立即注册

本版积分规则

在线客服

在线客服

服务时间 9:00—18:00

返回顶部

关注微信公众号第一时间推送精彩

官方微信

手机访问

Hao4K影音

专注4k家庭影音,提供家庭影音社区,家庭影音器材库,影音问答平台,影音商城,服务千万家庭影音用户。

本站内容部分由用户自主分享和转载自互联网,转载目的在于传递更多信息,并不代表本网赞同其观点和对其真实性负责。

如有侵权、违反国家法律政策行为,请联系我们,我们会第一时间及时清除和处理!

举报反馈邮箱:admin@hao4k.cn

Copyright  2019-2020  Hao4K影音粤公网安备 44030302001429号    ( 粤ICP备18155646号-1 )|网站地图