微博 微信

Hao4K影音

电影频道
电影封面:
片  名: 黑水4K
电影分类: 剧情 
国  家: 美国 
年  代: 2019年
分 辨 率: 4K(3840x2160)
电影格式: MKV|REMUX 
画质标准: HDR 
音质编码: DTS-HD Master Audio 
电影声道: 5.1声道 
帧数/FPS: 23.976 帧
电影语言: 英文原版 
资源大小: 41.61 GB
导  演: 托德·海因斯
豆瓣评分: 8.6 分
中文字幕: /thread-57997-1-1.html
剧情简介: 基于Nathaniel Rich在《纽约时报》上发表的文章《The Lawyer Who Became DuPont’s Worst Nightmare》,围绕罗伯特·比洛特展开,他担任辩护律师长达8年之久,他对化工巨头杜邦公司提起了环境诉讼,这场官司揭露了几十年来杜邦公司化学污染的历史。
追击黑水真相(港) / 黑水风暴(台) / 黑暗水域 / 空转 / 演习 / Dry Run / The Lawyer Who Became DuPont's Worst Nightmare/黑水4K.Dark.Waters.2019.2160p.AMZN.WEB-DL.x265.10bit.HDR.DTS-HD.MA.5.1-4k电影信息
  1. Video
  2. ID : 1
  3. Format : HEVC
  4. Format/Info : High Efficiency Video Coding
  5. Format profile : Main 10@L5@Main
  6. HDR format : SMPTE ST 2094 App 4, Version 0, HDR10 compatible
  7. Codec ID : V_MPEGH/ISO/HEVC
  8. Duration : 2 h 7 min
  9. Bit rate : 14.7 Mb/s
  10. Width : 3 840 pixels
  11. Height : 1 600 pixels
  12. Display aspect ratio : 2.40:1
  13. Frame rate mode : Constant
  14. Frame rate : 23.976 (24000/1001) FPS
  15. Standard : NTSC
  16. Color space : YUV
  17. Chroma subsampling : 4:2:0 (Type 2)
  18. Bit depth : 10 bits
  19. Bits/(Pixel*Frame) : 0.100
  20. Stream size : 13.1 GiB (80%)
  21. Default : Yes
  22. Forced : No
  23. Color range : Limited
  24. Color primaries : BT.2020
  25. Transfer characteristics : PQ
  26. Matrix coefficients : BT.2020 non-constant
  27. Mastering display color primaries : Display P3
  28. Mastering display luminance : min: 0.0020 cd/m2, max: 1000 cd/m2
  29. Maximum Content Light Level : 615 cd/m2
  30. Maximum Frame-Average Light Level : 80 cd/m2

  31. Audio #1
  32. ID : 2
  33. Format : DTS XLL
  34. Format/Info : Digital Theater Systems
  35. Commercial name : DTS-HD Master Audio
  36. Codec ID : A_DTS
  37. Duration : 2 h 7 min
  38. Bit rate mode : Variable
  39. Bit rate : 3 117 kb/s
  40. Channel(s) : 6 channels
  41. Channel layout : C L R Ls Rs LFE
  42. Sampling rate : 48.0 kHz
  43. Frame rate : 93.750 FPS (512 SPF)
  44. Bit depth : 24 bits
  45. Compression mode : Lossless
  46. Delay relative to video : 3 s 0 ms
  47. Stream size : 2.77 GiB (17%)
  48. Title : DTS-HD MA 5.1
  49. Language : English
  50. Default : Yes
  51. Forced : No

  52. Audio #2
  53. ID : 3
  54. Format : E-AC-3
  55. Format/Info : Enhanced AC-3
  56. Commercial name : Dolby Digital Plus
  57. Codec ID : A_EAC3
  58. Duration : 2 h 7 min
  59. Bit rate mode : Constant
  60. Bit rate : 640 kb/s
  61. Channel(s) : 6 channels
  62. Channel layout : L R C LFE Ls Rs
  63. Sampling rate : 48.0 kHz
  64. Frame rate : 31.250 FPS (1536 SPF)
  65. Compression mode : Lossy
  66. Stream size : 582 MiB (3%)
  67. Title : DDP 5.1
  68. Language : English
  69. Service kind : Complete Main
  70. Default : No
  71. Forced : No

  72. Text
  73. ID : 4
  74. Format : UTF-8
  75. Codec ID : S_TEXT/UTF8
  76. Codec ID/Info : UTF-8 Plain Text
  77. Duration : 2 h 3 min
  78. Bit rate : 70 b/s
  79. Count of elements : 1799
  80. Stream size : 63.8 KiB (0%)
  81. Title : English-SRT
  82. Language : English
  83. Default : Yes
  84. Forced : No

  85. Menu
  86. 00:00:00.000 : Studio Logo
  87. 00:00:27.000 : Opening Credits
  88. 00:01:31.000 : Scene 3
  89. 00:07:23.000 : Scene 4
  90. 00:13:08.000 : Scene 5
  91. 00:18:20.000 : Scene 6
  92. 00:23:37.000 : Scene 7
  93. 00:28:22.000 : Scene 8
  94. 00:32:08.000 : Scene 9
  95. 00:35:35.000 : Scene 10
  96. 00:40:33.000 : Scene 11
  97. 00:44:47.000 : Scene 12
  98. 00:47:41.000 : Scene 13
  99. 00:54:14.000 : Scene 14
  100. 00:59:35.000 : Scene 15
  101. 01:04:19.000 : Scene 16
  102. 01:08:48.000 : Scene 17
  103. 01:17:25.000 : Scene 18
  104. 01:23:27.000 : Scene 19
  105. 01:31:42.000 : Scene 20
  106. 01:36:17.000 : Scene 21
  107. 01:42:28.000 : Scene 22
  108. 01:47:23.000 : Scene 23
  109. 01:54:59.000 : Scene 24
  110. 02:00:07.000 : Scene 25
  111. 02:02:04.000 : End Credits
复制代码

追击黑水真相(港) / 黑水风暴(台) / 黑暗水域 / 空转 / 演习 / Dry Run / The Lawyer Who Became DuPont's Worst Nightmare/黑水4K.Dark.Waters.2019.2160p.AMZN.WEB-DL.x265.10bit.HDR.DTS-HD.MA.5.1-4K电影下载

黑水4K.Dark.Waters.2019.2160p.AMZN.WEB-DL.x265.10bit.HDR.DTS-HD.MA.5.1【4K HDR 14.61 GB】
黑水4K.Dark.Waters.2019.2160p.AMZN.WEB-DL.x265.10bit.HDR.DTS-HD.MA.5.1-SWTYBLZ.torrent (82.71 KB, 售价: 3 K币)
回复

使用道具 举报

全部回复37

yangly 发表于 2021-6-1 12:31:59

yangly 2

2021-6-1 12:31:59

谢谢分享
回复 支持 反对

使用道具 举报

dyczw 发表于 2021-6-1 14:05:09

dyczw 3

2021-6-1 14:05:09

感谢分享,辛苦了
回复 支持 反对

使用道具 举报

cdyangjun2019 发表于 2021-6-1 14:49:29

cdyangjun2019 4

2021-6-1 14:49:29

高分电影,谢谢楼主分享
回复 支持 1 反对 0

使用道具 举报

beeo 发表于 2021-6-1 18:01:07

beeo 5

2021-6-1 18:01:07

这片子可以
回复 支持 反对

使用道具 举报

bbgrnnji 发表于 2021-6-1 20:22:27

bbgrnnji 6

2021-6-1 20:22:27

这个应该不错
回复 支持 反对

使用道具 举报

hhhz 发表于 2021-6-1 20:40:18

hhhz 7

2021-6-1 20:40:18

描写杜邦特氟龙的诉讼故事,分数够高。
回复 支持 反对

使用道具 举报

leoncctv 发表于 2021-6-1 22:36:52

leoncctv 8

2021-6-1 22:36:52

资源大小写着40G,实际16G?
回复 支持 反对

使用道具 举报

iris6267 发表于 2021-6-2 08:18:59

iris6267 9

2021-6-2 08:18:59


谢谢分享
回复 支持 反对

使用道具 举报

181822519 发表于 2021-6-2 14:19:19

181822519 10

2021-6-2 14:19:19

谢谢楼主分享
回复 支持 反对

使用道具 举报

wangxuemin 发表于 2021-6-2 15:53:15

wangxuemin 11

2021-6-2 15:53:15

感谢分享,辛苦了
回复 支持 反对

使用道具 举报

mccliqiang 发表于 2021-6-2 22:53:11

mccliqiang 12

2021-6-2 22:53:11

分数够高的看看,谢谢分享
回复 支持 反对

使用道具 举报

hunter1944 发表于 2021-6-3 08:21:41

hunter1944 13

2021-6-3 08:21:41

你们能下载,花了币,然后迅雷下载失败
回复 支持 反对

使用道具 举报

hk50153 发表于 2021-6-3 09:15:23

hk50153 14

2021-6-3 09:15:23

谢谢楼主分享
回复 支持 反对

使用道具 举报

iris6267 发表于 2021-6-3 09:58:51

iris6267 15

2021-6-3 09:58:51

感谢分享
回复 支持 反对

使用道具 举报

ppplll3 发表于 2021-6-3 10:19:25

ppplll3 16

2021-6-3 10:19:25

高分电影,谢谢楼主分享
回复 支持 反对

使用道具 举报

笑傲江湖K 发表于 2021-6-3 11:28:44

笑傲江湖K 17

2021-6-3 11:28:44

谢谢分享
回复 支持 反对

使用道具 举报

GT718 发表于 2021-6-3 14:04:10

GT718 18

2021-6-3 14:04:10

多谢楼主分享
回复 支持 反对

使用道具 举报

   发表回复

您需要登录后才可以回帖 登录 | 立即注册

返回列表 本版积分规则

  • 在线客服

  • 返回顶部