微博 微信

Hao4K影音

电影频道
电影封面:
片  名: Fathom
电影分类: 纪录片 
国  家: 美国 
年  代: 2021年
分 辨 率: 4K(3840x2160)
电影格式: MKV|REMUX 
画质标准: SDR 
音质编码: Dolby Digital Plus Audio 
电影声道: 5.1声道 
帧数/FPS: 23.976 帧
电影语言: 中文简体 中文繁体 英文原版 
资源大小: 12.98 GB
导  演: Drew Xanthopoulos
豆瓣评分:
中文字幕: -
剧情简介: 苹果宣布,它已获得令人敬畏的纪录片《Fathom》的全球版权,该片将于6月25日在Apple TV+上独家首映。
  由德鲁·Xanthopoulos(“敏感人”)执导和拍摄,《Fathom》跟随Dr.艾伦·加兰和博士米歇尔·富内特,两位科学家专注于座头鲸歌曲和社交交流的研究。当他们在世界对立面开始平行的研究之旅时,他们寻求更好地了解鲸鱼文化和交流。这部纪录片独特地揭示了对科学pxrocess的深刻承诺和敬畏,以及人类寻求我们周围世界的答案的普遍需求。从假设到该领域的突破性经验,“法通”展示了领先科学家做出科学发现所需的激情、好奇心、合作、毅力和工作。
Fathom.2021.2160p.ATVP.WEB-DL.x265.10bit.SDR.DDP5.1.Atmos纪录片信息
  1. Video
  2. ID : 1
  3. Format : HEVC
  4. Format/Info : High Efficiency Video Coding
  5. Format profile : Main 10@L5@High
  6. Codec ID : V_MPEGH/ISO/HEVC
  7. Duration : 1 h 26 min
  8. Bit rate : 20.6 Mb/s
  9. Width : 3 840 pixels
  10. Height : 1 920 pixels
  11. Display aspect ratio : 2.000
  12. Frame rate mode : Constant
  13. Frame rate : 23.976 (23976/1000) FPS
  14. Color space : YUV
  15. Chroma subsampling : 4:2:0
  16. Bit depth : 10 bits
  17. Bits/(Pixel*Frame) : 0.117
  18. Stream size : 12.5 GiB (96%)
  19. Default : Yes
  20. Forced : No
  21. Color range : Limited
  22. Color primaries : BT.709
  23. Transfer characteristics : BT.709
  24. Matrix coefficients : BT.709

  25. Audio
  26. ID : 2
  27. Format : E-AC-3 JOC
  28. Format/Info : Enhanced AC-3 with Joint Object Coding
  29. Commercial name : Dolby Digital Plus with Dolby Atmos
  30. Codec ID : A_EAC3
  31. Duration : 1 h 26 min
  32. Bit rate mode : Constant
  33. Bit rate : 768 kb/s
  34. Channel(s) : 6 channels
  35. Channel layout : L R C LFE Ls Rs
  36. Sampling rate : 48.0 kHz
  37. Frame rate : 31.250 FPS (1536 SPF)
  38. Compression mode : Lossy
  39. Stream size : 477 MiB (4%)
  40. Title : English
  41. Language : English
  42. Service kind : Complete Main
  43. Default : No
  44. Forced : No
  45. Complexity index : 16
  46. Number of dynamic objects : 15
  47. Bed channel count : 1 channel
  48. Bed channel configuration : LFE

  49. Text #1
  50. ID : 3
  51. Format : UTF-8
  52. Codec ID : S_TEXT/UTF8
  53. Codec ID/Info : UTF-8 Plain Text
  54. Duration : 1 h 25 min
  55. Bit rate : 75 b/s
  56. Count of elements : 879
  57. Stream size : 47.8 KiB (0%)
  58. Title : Arabic
  59. Language : Arabic
  60. Default : No
  61. Forced : No

  62. Text #2
  63. ID : 4
  64. Format : UTF-8
  65. Codec ID : S_TEXT/UTF8
  66. Codec ID/Info : UTF-8 Plain Text
  67. Duration : 1 h 25 min
  68. Bit rate : 75 b/s
  69. Count of elements : 832
  70. Stream size : 47.3 KiB (0%)
  71. Title : Bulgarian
  72. Language : Bulgarian
  73. Default : No
  74. Forced : No

  75. Text #3
  76. ID : 5
  77. Format : UTF-8
  78. Codec ID : S_TEXT/UTF8
  79. Codec ID/Info : UTF-8 Plain Text
  80. Duration : 1 h 25 min
  81. Bit rate : 44 b/s
  82. Count of elements : 879
  83. Stream size : 28.0 KiB (0%)
  84. Title : Simplified
  85. Language : Chinese
  86. Default : No
  87. Forced : No

  88. Text #4
  89. ID : 6
  90. Format : UTF-8
  91. Codec ID : S_TEXT/UTF8
  92. Codec ID/Info : UTF-8 Plain Text
  93. Duration : 1 h 25 min
  94. Bit rate : 49 b/s
  95. Count of elements : 880
  96. Stream size : 30.9 KiB (0%)
  97. Title : Cantonese
  98. Language : Chinese
  99. Default : No
  100. Forced : No

  101. Text #5
  102. ID : 7
  103. Format : UTF-8
  104. Codec ID : S_TEXT/UTF8
  105. Codec ID/Info : UTF-8 Plain Text
  106. Duration : 1 h 25 min
  107. Bit rate : 43 b/s
  108. Count of elements : 880
  109. Stream size : 27.6 KiB (0%)
  110. Title : Traditional
  111. Language : Chinese
  112. Default : No
  113. Forced : No

  114. Text #6
  115. ID : 8
  116. Format : UTF-8
  117. Codec ID : S_TEXT/UTF8
  118. Codec ID/Info : UTF-8 Plain Text
  119. Duration : 1 h 25 min
  120. Bit rate : 48 b/s
  121. Count of elements : 835
  122. Stream size : 30.6 KiB (0%)
  123. Title : Czech
  124. Language : Czech
  125. Default : No
  126. Forced : No
复制代码

Fathom.2021.2160p.ATVP.WEB-DL.x265.10bit.SDR.DDP5.1.Atmos纪录片下载
Fathom.2021.2160p.ATVP.WEB-DL.x265.10bit.SDR.DDP5.1.Atmos【12.98GB】
Fathom.2021.2160p.ATVP.WEB-DL.x265.10bit.SDR.DDP5.1.Atmos-CM.torrent (65.53 KB, 售价: 2 个K币)
回复

使用道具 举报

全部回复36

ARFEI 发表于 2021-6-25 18:14:30

ARFEI 2

2021-6-25 18:14:30

还自带中文字幕啊,多谢分享了。
回复 支持 反对

使用道具 举报

Elsapoo 发表于 2021-6-25 19:25:26

Elsapoo 3

2021-6-25 19:25:26

喜欢看纪录片,感谢楼主分享
回复 支持 反对

使用道具 举报

lsn007 发表于 2021-6-25 19:40:07

lsn007 4

2021-6-25 19:40:07


喜欢看纪录片,感谢楼主分享
回复 支持 反对

使用道具 举报

sacdhao 发表于 2021-6-25 19:47:45

sacdhao 5

2021-6-25 19:47:45

喜欢看纪录片,感谢楼主分享
回复 支持 反对

使用道具 举报

wstxws 发表于 2021-6-25 20:59:31

wstxws 6

2021-6-25 20:59:31

喜欢看记录片,谢谢。
回复 支持 反对

使用道具 举报

johnsons 发表于 2021-6-25 21:23:30

johnsons 7

2021-6-25 21:23:30

喜欢看纪录片,感谢楼主分享
回复 支持 反对

使用道具 举报

一只鱼 发表于 2021-6-25 21:32:58

一只鱼 8

2021-6-25 21:32:58

感谢楼主分享,有人看了这部纪录片得吗?
回复 支持 反对

使用道具 举报

lub 发表于 2021-6-25 22:57:15

lub 9

2021-6-25 22:57:15

感谢楼主分享
回复 支持 反对

使用道具 举报

powerking45 发表于 2021-6-26 07:34:31

powerking45 10

2021-6-26 07:34:31

感謝樓主分享
回复 支持 反对

使用道具 举报

Cloudm 发表于 2021-6-26 08:11:57

Cloudm 11

2021-6-26 08:11:57

感谢分享
回复 支持 反对

使用道具 举报

xin2niu 发表于 2021-6-26 08:16:31

xin2niu 12

2021-6-26 08:16:31

多谢分享
回复 支持 反对

使用道具 举报

dk30129 发表于 2021-6-26 08:23:19

dk30129 13

2021-6-26 08:23:19

谢谢分享,顶你!!!
回复 支持 反对

使用道具 举报

cxh2397 发表于 2021-6-26 08:34:44

cxh2397 14

2021-6-26 08:34:44


喜欢看纪录片,感谢楼主分享
回复 支持 反对

使用道具 举报

zyp5588640 发表于 2021-6-26 09:28:17

zyp5588640 15

2021-6-26 09:28:17



喜欢看纪录片,感谢楼主分享
回复 支持 反对

使用道具 举报

一笑3 发表于 2021-6-26 09:59:36

一笑3 16

2021-6-26 09:59:36

喜欢看纪录片,感谢楼主分享
回复 支持 反对

使用道具 举报

panbell 发表于 2021-6-26 10:18:19

panbell 17

2021-6-26 10:18:19

感謝樓主分享
回复 支持 反对

使用道具 举报

沧海天涯月明 发表于 2021-6-26 10:37:46

沧海天涯月明 18

2021-6-26 10:37:46

感謝樓主分享顶你!!!
回复 支持 反对

使用道具 举报

   发表回复

您需要登录后才可以回帖 登录 | 立即注册

返回列表 本版积分规则

  • 在线客服

  • 返回顶部