微博 微信

Hao4K影音

电影频道
电影封面:
片  名: White.Spot
电影分类: 冒险 纪录片 
国  家: 德国 
年  代: 2020年
分 辨 率: 4K(3840x2160)
电影格式: MKV|REMUX 
画质标准: SDR 
音质编码: Dolby Digital Audio 
电影声道: 5.1声道 
帧数/FPS: 23.976 帧
电影语言: 英文原版 
资源大小: 7.67 GB
导  演: DocumentaryAdventureDramaFamily
豆瓣评分:
中文字幕: -
剧情简介: The film White Spot lets you experience the unbelievable adventures of the Brazilian-German couple, Ariane and Tin, moving along crazy difficulties. Picking the viewer from the beginning to get introduced to the background story by evolving a continuous raising tension. Ariane\'s visa gets declined, and even with a 90-day permit to stay, she gets refused to enter New Zealand. Tin is at that time already in Christchurch with a bought camper. They figure the only possible solution is to change the entire plan to South America. After a two-year long-distance relationship, the couple is facing again incredibly difficult situations. Several local confrontations and a broken car strengthens their bond and accelerates the year in the wild into an immersive experience. Passing the small ridge between a nature-travel documentary and a story which lets your blood run cold, White Spot makes you wanna break out of the system and travel the world.
White.Spot.2020.2160p.WEB-DL.x265.10bit.SDR.DD5.1纪录片信息
  1. Video
  2. ID : 1
  3. Format : HEVC
  4. Format/Info : High Efficiency Video Coding
  5. Format profile : Main 10@L5@High
  6. Codec ID : V_MPEGH/ISO/HEVC
  7. Duration : 1 h 30 min
  8. Bit rate : 11.8 Mb/s
  9. Width : 3 840 pixels
  10. Height : 1 624 pixels
  11. Display aspect ratio : 2.35:1
  12. Frame rate mode : Constant
  13. Frame rate : 23.976 FPS
  14. Color space : YUV
  15. Chroma subsampling : 4:2:0
  16. Bit depth : 10 bits
  17. Bits/(Pixel*Frame) : 0.079
  18. Stream size : 7.42 GiB (97%)
  19. Default : Yes
  20. Forced : No
  21. Color range : Limited
  22. Color primaries : BT.709
  23. Transfer characteristics : BT.709
  24. Matrix coefficients : BT.709

  25. Audio
  26. ID : 2
  27. Format : AC-3
  28. Format/Info : Audio Coding 3
  29. Commercial name : Dolby Digital
  30. Codec ID : A_AC3
  31. Duration : 1 h 30 min
  32. Bit rate mode : Constant
  33. Bit rate : 384 kb/s
  34. Channel(s) : 6 channels
  35. Channel layout : L R C LFE Ls Rs
  36. Sampling rate : 48.0 kHz
  37. Frame rate : 31.250 FPS (1536 SPF)
  38. Compression mode : Lossy
  39. Stream size : 248 MiB (3%)
  40. Language : English
  41. Service kind : Complete Main
  42. Default : Yes
  43. Forced : No

  44. Text #1
  45. ID : 3
  46. Format : UTF-8
  47. Codec ID : S_TEXT/UTF8
  48. Codec ID/Info : UTF-8 Plain Text
  49. Duration : 1 h 29 min
  50. Bit rate : 45 b/s
  51. Count of elements : 853
  52. Stream size : 30.1 KiB (0%)
  53. Language : German
  54. Default : No
  55. Forced : No

  56. Text #2
  57. ID : 4
  58. Format : UTF-8
  59. Codec ID : S_TEXT/UTF8
  60. Codec ID/Info : UTF-8 Plain Text
  61. Duration : 1 h 29 min
  62. Bit rate : 41 b/s
  63. Count of elements : 847
  64. Stream size : 27.2 KiB (0%)
  65. Language : English
  66. Default : No
  67. Forced : No

  68. Text #3
  69. ID : 5
  70. Format : UTF-8
  71. Codec ID : S_TEXT/UTF8
  72. Codec ID/Info : UTF-8 Plain Text
  73. Duration : 1 h 29 min
  74. Bit rate : 43 b/s
  75. Count of elements : 837
  76. Stream size : 28.6 KiB (0%)
  77. Language : Portuguese
  78. Default : No
  79. Forced : No
复制代码


White.Spot.2020.2160p.WEB-DL.x265.10bit.SDR.DD5.1纪录片下载
White.Spot.2020.2160p.WEB-DL.x265.10bit.SDR.DD5.1【7.67 GB】
White.Spot.2020.2160p.WEB-DL.x265.10bit.SDR.DD5.1-ROCCaT.torrent (19.8 KB)
回复

使用道具 举报

   发表回复

您需要登录后才可以回帖 登录 | 立即注册

返回列表 本版积分规则

  • 在线客服

  • 返回顶部