专注4K家庭影音, 服务千万家庭影音发烧友!

69.The.Saga.of.Danny.Hernandez.4k 2020.2160p.纪录片下载

青衫烟雨 发表于 7 天前 | 显示全部楼层
电影频道
电影封面:
片  名: 69.The.Saga.of.Danny.Hernandez
电影分类: 纪录片 
国  家: 美国 
年  代: 2020年
分 辨 率: 4K(3840x2160)
电影格式: MKV|REMUX 
画质标准: SDR 
音质编码: Dolby Digital Plus Audio 
电影声道: 其他 
帧数/FPS: 23.976 FPS
电影语言: 英文原版 
资源大小: 11.43 GB
导  演: Vikram Gandhi
豆瓣评分: 0 分
中文字幕: -
剧情简介: 一部分是调查纪录片,一部分是现实中的黑帮电影,“ 69:丹尼·埃尔南德斯的传奇”开创了极化说唱感觉和互联网巨魔Tekashi的生活。
69.The.Saga.of.Danny.Hernandez.2020.2160p.HULU.WEBRip.x265.10bit.SDR.DDP5.1.纪录片信息
  1. Video
  2. ID : 1
  3. Format : HEVC
  4. Format/Info : High Efficiency Video Coding
  5. Format profile : Main 10@L5.1@Main
  6. Codec ID : V_MPEGH/ISO/HEVC
  7. Duration : 1 h 41 min
  8. Bit rate : 15.8 Mb/s
  9. Width : 3 840 pixels
  10. Height : 2 160 pixels
  11. Display aspect ratio : 16:9
  12. Frame rate mode : Constant
  13. Frame rate : 23.976 (24000/1001) FPS
  14. Color space : YUV
  15. Chroma subsampling : 4:2:0
  16. Bit depth : 10 bits
  17. Bits/(Pixel*Frame) : 0.079
  18. Stream size : 11.3 GiB (98%)
  19. Default : Yes
  20. Forced : No

  21. Audio
  22. ID : 2
  23. Format : E-AC-3
  24. Format/Info : Enhanced AC-3
  25. Commercial name : Dolby Digital Plus
  26. Codec ID : A_EAC3
  27. Duration : 1 h 41 min
  28. Bit rate mode : Constant
  29. Bit rate : 256 kb/s
  30. Channel(s) : 6 channels
  31. Channel layout : L R C LFE Ls Rs
  32. Sampling rate : 48.0 kHz
  33. Frame rate : 31.250 FPS (1536 SPF)
  34. Compression mode : Lossy
  35. Stream size : 187 MiB (2%)
  36. Language : English
  37. Service kind : Complete Main
  38. Default : Yes
  39. Forced : No

  40. Text #1
  41. ID : 3
  42. Format : UTF-8
  43. Codec ID : S_TEXT/UTF8
  44. Codec ID/Info : UTF-8 Plain Text
  45. Duration : 1 h 40 min
  46. Bit rate : 118 b/s
  47. Count of elements : 1776
  48. Stream size : 87.5 KiB (0%)
  49. Language : English
  50. Default : No
  51. Forced : No

  52. Text #2
  53. ID : 4
  54. Format : UTF-8
  55. Codec ID : S_TEXT/UTF8
  56. Codec ID/Info : UTF-8 Plain Text
  57. Duration : 1 h 40 min
  58. Bit rate : 137 b/s
  59. Count of elements : 2050
  60. Stream size : 101 KiB (0%)
  61. Language : Spanish
  62. Default : No
  63. Forced : No
复制代码

69.The.Saga.of.Danny.Hernandez.2020.2160p.HULU.WEBRip.x265.10bit.SDR.DDP5.1.纪录片下载

69.The.Saga.of.Danny.Hernandez.2020.2160p.HULU.WEBRip.x265.10bit.SDR.DDP5.1【11.43 GB】

69.The.Saga.of.Danny.Hernandez.2020.2160p.HULU.WEBRip.x265.10bit.SDR.DDP5.1-TEPES.torrent
(57.75 KB, 售价: 2 K币)
回复

使用道具 举报

发烧友评论17

倒序浏览
最帅的艾萨克 发表于 前天 12:12 | 显示全部楼层
69?这名字不错,有内涵,有兴奋感~~
回复 支持 反对

使用道具 举报

panbell 发表于 3 天前 | 显示全部楼层
牛,更新够快!!
回复 支持 反对

使用道具 举报

ywf6168 发表于 5 天前 | 显示全部楼层
感谢分享资源
回复 支持 反对

使用道具 举报

551667981 发表于 6 天前 | 显示全部楼层
69.和这个不错,新片子
回复 支持 反对

使用道具 举报

dk30129 发表于 6 天前 | 显示全部楼层
谢谢分享,楼主,相信你!
回复 支持 反对

使用道具 举报

xxf691207 发表于 6 天前 | 显示全部楼层
感谢分享,辛苦了
回复 支持 反对

使用道具 举报

SANKID 发表于 6 天前 | 显示全部楼层
SANKID 发表于 2020-11-19 11:45
哇 这个东西好啊!

可惜下不动 几十K每秒
回复 支持 反对

使用道具 举报

William.Kun 发表于 6 天前 | 显示全部楼层
好人一生平安好人一生平安好人一生平安
回复 支持 反对

使用道具 举报

SANKID 发表于 6 天前 | 显示全部楼层
哇 这个东西好啊!
回复 支持 反对

使用道具 举报

dyczw 发表于 6 天前 | 显示全部楼层
感谢分享,辛苦了
回复 支持 反对

使用道具 举报

LETHE 发表于 6 天前 Hao4K手机版 | 显示全部楼层
sun120192 发表于 2020-11-18 17:49
这个东西,有字幕吗?

没有。这个是WEBRip版的。流媒体hulu一直不提供中文的。
回复 支持 反对

使用道具 举报

sun120192 发表于 7 天前 | 显示全部楼层
这个东西,有字幕吗?
回复 支持 反对

使用道具 举报

您需要登录后才可以回帖 登录 | 立即注册

本版积分规则

在线客服

在线客服

服务时间 9:00—18:00

返回顶部

关注微信公众号第一时间推送精彩

官方微信

手机访问

Hao4K影音

专注4k家庭影音,提供家庭影音社区,家庭影音器材库,影音问答平台,影音商城,服务千万家庭影音用户。

本站内容部分由用户自主分享和转载自互联网,转载目的在于传递更多信息,并不代表本网赞同其观点和对其真实性负责。

如有侵权、违反国家法律政策行为,请联系我们,我们会第一时间及时清除和处理!

举报反馈邮箱:admin@hao4k.cn

Copyright  2019-2020  Hao4K影音粤公网安备 44030302001429号    ( 粤ICP备18155646号-1 )|网站地图