微博 微信

Hao4K影音

电影频道
电影封面:
片  名: 安迪艾恩斯:上帝亲吻的宠儿4k
电影分类: 纪录片 
国  家: 美国 
年  代: 2018年
分 辨 率: 4K(3840x2160)
电影格式: MKV|REMUX 
画质标准: SDR 
音质编码: Dolby Digital Plus Audio 
电影声道: 5.1声道 
帧数/FPS: 23.976 FPS
电影语言: 英文原版 
资源大小: 10.51 GB
导  演: 史蒂夫·琼斯 / Todd Jones
豆瓣评分: 8.2 分
中文字幕: -
剧情简介: -
安迪艾恩斯:上帝亲吻的宠儿4k.Andy.Irons.Kissed.by.God.2018.2160p.AMZN.WEB-DL.x265.8bit.SDR.DDP5.1.纪录片电影信息
  1. Video
  2. ID : 1
  3. Format : HEVC
  4. Format/Info : High Efficiency Video Coding
  5. Format profile : Main@L5@Main
  6. Codec ID : V_MPEGH/ISO/HEVC
  7. Duration : 1 h 39 min
  8. Bit rate : 14.4 Mb/s
  9. Width : 3 840 pixels
  10. Height : 2 160 pixels
  11. Display aspect ratio : 16:9
  12. Frame rate mode : Constant
  13. Frame rate : 23.976 (24000/1001) FPS
  14. Standard : NTSC
  15. Color space : YUV
  16. Chroma subsampling : 4:2:0
  17. Bit depth : 8 bits
  18. Bits/(Pixel*Frame) : 0.072
  19. Stream size : 10.1 GiB (96%)
  20. Writing library : x265 0.0:[Linux][GCC 4.8.2][64 bit] 8bit+10bit+12bit
  21. Encoding settings : cpuid=1173503 / frame-threads=2 / wpp / no-pmode / no-pme / psnr / ssim / log-level=2 / csvfn=/apollo/env/YoshiEncodingWorkflowActivitiesLinuxEncoding/var/tmp/1849828207/5bdeea60-e798-4d47-9c05-11cf30f00c05/aed71122-8cdc-47af-8eca-90c735014d16_video_2160p_15000kbps.csv / csv-log-level=2 / input-csp=1 / input-res=3840x2160 / interlace=0 / total-frames=0 / level-idc=50 / high-tier=1 / uhd-bd=0 / ref=5 / no-allow-non-conformance / no-repeat-headers / annexb / no-aud / no-hrd / info / hash=0 / no-temporal-layers / no-open-gop / min-keyint=61 / keyint=120 / bframes=8 / b-adapt=2 / b-pyramid / bframe-bias=0 / rc-lookahead=120 / lookahead-slices=4 / scenecut=0 / no-intra-refresh / ctu=64 / min-cu-size=8 / rect / amp / max-tu-size=32 / tu-inter-depth=4 / tu-intra-depth=4 / limit-tu=4 / rdoq-level=2 / dynamic-rd=0.00 / no-ssim-rd / signhide / tskip / nr-intra=100 / nr-inter=600 / no-constrained-intra / strong-intra-smoothing / max-merge=3 / limit-refs=3 / limit-modes / me=3 / subme=3 / merange=57 / temporal-mvp / weightp / weightb / no-analyze-src-pics / deblock=0:0 / no-sao / no-sao-non-deblock / rd=4 / no-early-skip / no-rskip / no-fast-intra / tskip-fast / no-cu-lossless / b-intra / rdpenalty=0 / psy-rd=4.00 / psy-rdoq=10.00 / no-rd-refine / analysis-reuse-mode=0 / no-lossless / cbqpoffs=0 / crqpoffs=0 / rc=crf / crf=25.0 / qcomp=0.60 / qpstep=1 / stats-write=0 / stats-read=0 / vbv-maxrate=15000 / vbv-bufsize=20000 / vbv-init=0.9 / crf-max=0.0 / crf-min=0.0 / ipratio=1.10 / pbratio=1.00 / aq-mode=0 / aq-strength=1.50 / no-cutree / zone-count=0 / no-strict-cbr / qg-size=32 / rc-grain / qpmax=69 / qpmin=0 / const-vbv / sar=1 / overscan=0 / videoformat=2 / range=0 / colorprim=1 / transfer=1 / colormatrix=1 / chromaloc=0 / display-window=0 / max-cll=0,0 / min-luma=0 / max-luma=255 / log2-max-poc-lsb=8 / vui-timing-info / vui-hrd-info / slices=1 / opt-qp-pps / opt-ref-list-length-pps / no-multi-pass-opt-rps / scenecut-bias=0.05 / no-opt-cu-delta-qp / no-aq-motion / no-hdr / no-hdr-opt / no-dhdr10-opt / analysis-reuse-level=5 / scale-factor=0 / refine-intra=0 / refine-inter=0 / refine-mv=0 / no-limit-sao / ctu-info=0
  22. Default : Yes
  23. Forced : No
  24. Color range : Limited
  25. Color primaries : BT.709
  26. Transfer characteristics : BT.709
  27. Matrix coefficients : BT.709

  28. Audio
  29. ID : 2
  30. Format : E-AC-3
  31. Format/Info : Enhanced AC-3
  32. Commercial name : Dolby Digital Plus
  33. Codec ID : A_EAC3
  34. Duration : 1 h 39 min
  35. Bit rate mode : Constant
  36. Bit rate : 640 kb/s
  37. Channel(s) : 6 channels
  38. Channel layout : L R C LFE Ls Rs
  39. Sampling rate : 48.0 kHz
  40. Frame rate : 31.250 FPS (1536 SPF)
  41. Compression mode : Lossy
  42. Stream size : 458 MiB (4%)
  43. Title : DDP 5.1
  44. Language : English
  45. Service kind : Complete Main
  46. Default : Yes
  47. Forced : No

  48. Text
  49. ID : 3
  50. Format : UTF-8
  51. Codec ID : S_TEXT/UTF8
  52. Codec ID/Info : UTF-8 Plain Text
  53. Duration : 1 h 34 min
  54. Bit rate : 89 b/s
  55. Count of elements : 1423
  56. Stream size : 61.4 KiB (0%)
  57. Title : SDH
  58. Language : English
  59. Default : No
  60. Forced : No
复制代码

安迪艾恩斯:上帝亲吻的宠儿4k.Andy.Irons.Kissed.by.God.2018.2160p.AMZN.WEB-DL.x265.8bit.SDR.DDP5.1.纪录片电影下载

安迪艾恩斯:上帝亲吻的宠儿4k.Andy.Irons.Kissed.by.God.2018.2160p.AMZN.WEB-DL.x265.8bit.SDR.DDP5.1【10.51 GB】
[Hao4k]安迪艾恩斯:上帝亲吻的宠儿4k Andy.Irons.Kissed.by.God.2018.2160p.AMZN.WEB.torrent (53.15 KB)
回复

使用道具 举报

全部回复7

dyczw 发表于 3 天前

dyczw 沙发

3 天前

感谢分享,辛苦了
回复 支持 反对

使用道具 举报

highrpmclub 发表于 3 天前

highrpmclub 板凳

3 天前

欧美的纪录片很多都评分很高
回复 支持 反对

使用道具 举报

gugugu 发表于 3 天前

gugugu 地板

3 天前

感谢分享
回复 支持 反对

使用道具 举报

andywjhh 发表于 3 天前

andywjhh 5#

3 天前

感谢分享~!
回复 支持 反对

使用道具 举报

martincja 发表于 3 天前

martincja 6#

3 天前


感谢分享~!
回复 支持 反对

使用道具 举报

yale 发表于 3 天前

yale 7#

3 天前

谢谢分享
回复 支持 反对

使用道具 举报

panbell 发表于 4 小时前

panbell 8#

4 小时前

感谢分享,辛苦了
回复 支持 反对

使用道具 举报

   发表回复

您需要登录后才可以回帖 登录 | 立即注册

返回列表 本版积分规则

  • 在线客服

  • 返回顶部