微博 微信

Hao4K影音

电影频道
电影封面:
片  名: 半血缘兄弟4K
电影分类: 喜剧 
国  家: 美国 
年  代: 2020年
分 辨 率: 4K(3840x2160)
电影格式: MKV|REMUX 
画质标准: HDR10 
音质编码: DTS-HD Master Audio 
电影声道: 5.1声道 
帧数/FPS: 23.976 帧
电影语言: 英文原版 
资源大小: 12.63 GB
导  演: 卢克·格林菲德
豆瓣评分: 6.0 分
中文字幕: /thread-56396-1-1.html
剧情简介: 影片讲述两个同父异母的兄弟揭开垂死父亲的秘密时,他们彼此的关系也受到了考验。
半血缘兄弟4K.Half.Brothers.2020.2160p.AMZN.WEB-DL.x265.10bit.HDR10Plus.DTS-HD.MA.5.1-4k电影信息
  1. Video
  2. ID : 1
  3. Format : HEVC
  4. Format/Info : High Efficiency Video Coding
  5. Format profile : Main 10@L5@Main
  6. HDR format : SMPTE ST 2094 App 4, Version 1, HDR10+ Profile B compatible
  7. Codec ID : V_MPEGH/ISO/HEVC
  8. Duration : 1 h 36 min
  9. Bit rate : 14.9 Mb/s
  10. Width : 3 840 pixels
  11. Height : 1 600 pixels
  12. Display aspect ratio : 2.40:1
  13. Frame rate mode : Constant
  14. Frame rate : 23.976 (24000/1001) FPS
  15. Color space : YUV
  16. Chroma subsampling : 4:2:0
  17. Bit depth : 10 bits
  18. Bits/(Pixel*Frame) : 0.101
  19. Stream size : 10.1 GiB (80%)
  20. Language : English
  21. Default : Yes
  22. Forced : No
  23. Color range : Limited
  24. Color primaries : BT.2020
  25. Transfer characteristics : PQ
  26. Matrix coefficients : BT.2020 non-constant
  27. Mastering display color primaries : Display P3
  28. Mastering display luminance : min: 0.0050 cd/m2, max: 1000 cd/m2
  29. Maximum Content Light Level : 1000 cd/m2
  30. Maximum Frame-Average Light Level : 147 cd/m2

  31. Audio #1
  32. ID : 2
  33. ID in the original source medium : 4352 (0x1100)
  34. Format : DTS XLL
  35. Format/Info : Digital Theater Systems
  36. Commercial name : DTS-HD Master Audio
  37. Codec ID : A_DTS
  38. Duration : 1 h 35 min
  39. Bit rate mode : Variable
  40. Bit rate : 3 200 kb/s
  41. Channel(s) : 6 channels
  42. Channel layout : C L R Ls Rs LFE
  43. Sampling rate : 48.0 kHz
  44. Frame rate : 93.750 FPS (512 SPF)
  45. Bit depth : 24 bits
  46. Compression mode : Lossless
  47. Delay relative to video : 24 s 680 ms
  48. Stream size : 2.15 GiB (17%)
  49. Title : DTS-HD MA 5.1
  50. Language : English
  51. Default : Yes
  52. Forced : No
  53. Original source medium : Blu-ray

  54. Audio #2
  55. ID : 3
  56. Format : E-AC-3
  57. Format/Info : Enhanced AC-3
  58. Commercial name : Dolby Digital Plus
  59. Codec ID : A_EAC3
  60. Duration : 1 h 36 min
  61. Bit rate mode : Constant
  62. Bit rate : 640 kb/s
  63. Channel(s) : 6 channels
  64. Channel layout : L R C LFE Ls Rs
  65. Sampling rate : 48.0 kHz
  66. Frame rate : 31.250 FPS (1536 SPF)
  67. Compression mode : Lossy
  68. Stream size : 441 MiB (3%)
  69. Title : DDP 5.1
  70. Language : English
  71. Service kind : Complete Main
  72. Default : No
  73. Forced : No

  74. Text
  75. ID : 4
  76. Format : UTF-8
  77. Codec ID : S_TEXT/UTF8
  78. Codec ID/Info : UTF-8 Plain Text
  79. Duration : 1 h 35 min
  80. Bit rate : 69 b/s
  81. Count of elements : 1709
  82. Stream size : 48.7 KiB (0%)
  83. Title : English
  84. Language : English
  85. Default : Yes
  86. Forced : No

  87. Menu
  88. 00:00:00.000 : en:Chapter 01
  89. 00:05:47.472 : en:Chapter 02
  90. 00:09:08.548 : en:Chapter 03
  91. 00:13:32.019 : en:Chapter 04
  92. 00:16:08.133 : en:Chapter 05
  93. 00:20:23.931 : en:Chapter 06
  94. 00:24:32.721 : en:Chapter 07
  95. 00:30:16.606 : en:Chapter 08
  96. 00:32:55.056 : en:Chapter 09
  97. 00:40:37.852 : en:Chapter 10
  98. 00:44:17.988 : en:Chapter 11
  99. 00:46:43.842 : en:Chapter 12
  100. 00:53:51.228 : en:Chapter 13
  101. 00:59:59.637 : en:Chapter 14
  102. 01:06:02.625 : en:Chapter 15
  103. 01:10:14.627 : en:Chapter 16
  104. 01:14:45.522 : en:Chapter 17
  105. 01:18:21.154 : en:Chapter 18
  106. 01:25:56.484 : en:Chapter 19
  107. 01:31:21.559 : en:Chapter 20
复制代码
半血缘兄弟4K.Half.Brothers.2020.2160p.AMZN.WEB-DL.x265.10bit.HDR10Plus.DTS-HD.MA.5.1-4K电影下载

半血缘兄弟4K.Half.Brothers.2020.2160p.AMZN.WEB-DL.x265.10bit.HDR10Plus.DTS-HD.MA.5.1 【4K HDR 12.63】
[Hao4K]半血缘兄弟4K.Half.Brothers.2020.2160p.AMZN.WEB-DL.x265.10bit.HDR10Plus.DT.torrent (63.84 KB)
回复

使用道具 举报

全部回复59

578451008 发表于 2021-4-18 10:23:05

578451008 沙发

2021-4-18 10:23:05

没搜到外挂字幕
回复 支持 反对

使用道具 举报

aftok123 发表于 2021-4-18 11:31:10

aftok123 板凳

2021-4-18 11:31:10

座板凳
回复 支持 反对

使用道具 举报

月光麦田 发表于 2021-4-18 11:33:14

月光麦田 地板

2021-4-18 11:33:14

很喜欢这类型的
回复 支持 反对

使用道具 举报

农夫舅舅 发表于 2021-4-18 12:05:17 Hao4K手机版

农夫舅舅 5#

2021-4-18 12:05:17

不知道怎么样,看看先
回复 支持 反对

使用道具 举报

lanpangzi2019 发表于 2021-4-18 12:54:44

lanpangzi2019 6#

2021-4-18 12:54:44

不知道怎么样,看看先
回复 支持 反对

使用道具 举报

yale 发表于 2021-4-18 15:08:31

yale 7#

2021-4-18 15:08:31

谢谢分享
回复 支持 反对

使用道具 举报

Makoto8023 发表于 2021-4-18 15:24:19

Makoto8023 8#

2021-4-18 15:24:19

谢谢分享
回复 支持 反对

使用道具 举报

dk30129 发表于 2021-4-18 18:32:11

dk30129 9#

2021-4-18 18:32:11

谢谢分享,顶你!!!
回复 支持 反对

使用道具 举报

爱三少 发表于 2021-4-18 20:42:31

爱三少 10#

2021-4-18 20:42:31

谢谢分享
回复 支持 反对

使用道具 举报

yakoo 发表于 2021-4-19 07:16:02

yakoo 11#

2021-4-19 07:16:02

这是喜剧片吗?
回复 支持 反对

使用道具 举报

Makoto8023 发表于 2021-4-19 08:16:49

Makoto8023 12#

2021-4-19 08:16:49

谢谢分享
回复 支持 反对

使用道具 举报

blackray 发表于 2021-4-19 08:49:31

blackray 13#

2021-4-19 08:49:31

谢谢分享
回复 支持 反对

使用道具 举报

lifeimax 发表于 2021-4-19 10:54:39

lifeimax 14#

2021-4-19 10:54:39


谢谢分享
回复 支持 反对

使用道具 举报

沙滩凉鞋 发表于 2021-4-19 12:34:05

沙滩凉鞋 15#

2021-4-19 12:34:05

为每个新人都必须面对并跨越自己过去的心魔,团结起来
回复 支持 反对

使用道具 举报

iris6267 发表于 2021-4-19 13:48:55

iris6267 16#

2021-4-19 13:48:55


谢谢分享
回复 支持 反对

使用道具 举报

andywjhh 发表于 2021-4-19 15:32:13

andywjhh 17#

2021-4-19 15:32:13

好资源很给力
回复 支持 反对

使用道具 举报

suxiuxiu 发表于 2021-4-19 15:32:40

suxiuxiu 18#

2021-4-19 15:32:40

谢谢分享
回复 支持 反对

使用道具 举报

   发表回复

您需要登录后才可以回帖 登录 | 立即注册

返回列表 本版积分规则

  • 在线客服

  • 返回顶部