微博 微信

Hao4K影音

电影频道
电影封面:
片  名: 外国佬4k
电影分类: 动作 犯罪 喜剧 
国  家: 美国 其他 
年  代: 2018年
分 辨 率: 4K(3840x2160)
电影格式: MKV|REMUX 
画质标准: HDR 
音质编码: DTS-HD Master Audio 
电影声道: 5.1声道 
帧数/FPS: 23.976 FPS
电影语言: 英文原版 
资源大小: 14.63 GB
导  演: 纳许·埃哲顿
豆瓣评分: 5.9 分
中文字幕: -
剧情简介: 《外国佬》是由Eduardo Rodriguez执导的动作片,斯科特·阿金斯、克里斯汀·史莱特等参加演出。
该片讲述了一个男子带着他不为人知的秘密携带两百万美金偷渡到墨西哥小镇阿吉哥,没想到他却惊醒了这个沉睡的边境小镇,引来一场疯狂的大追杀的故事。
老板好坏(台) / 边个出差咁黑仔?(港) / 美国运通 / American Express/外国佬4k Gringo.2018.2160p.AMZN.WEB-DL.x265.10bit.HDR10plus.DTS-HD.MA.5.1.电影信息
  1. Video
  2. ID : 1
  3. Format : HEVC
  4. Format/Info : High Efficiency Video Coding
  5. Format profile : Main 10@L5@Main
  6. HDR format : SMPTE ST 2094 App 4, Version 0, HDR10 compatible
  7. Codec ID : V_MPEGH/ISO/HEVC
  8. Duration : 1 h 50 min
  9. Bit rate : 14.8 Mb/s
  10. Width : 3 840 pixels
  11. Height : 1 600 pixels
  12. Display aspect ratio : 2.40:1
  13. Frame rate mode : Constant
  14. Frame rate : 23.976 (24000/1001) FPS
  15. Standard : NTSC
  16. Color space : YUV
  17. Chroma subsampling : 4:2:0 (Type 2)
  18. Bit depth : 10 bits
  19. Bits/(Pixel*Frame) : 0.101
  20. Stream size : 11.5 GiB (78%)
  21. Default : Yes
  22. Forced : No
  23. Color range : Limited
  24. Color primaries : BT.2020
  25. Transfer characteristics : PQ
  26. Matrix coefficients : BT.2020 non-constant
  27. Mastering display color primaries : Display P3
  28. Mastering display luminance : min: 0.0001 cd/m2, max: 1000 cd/m2
  29. Maximum Content Light Level : 324 cd/m2
  30. Maximum Frame-Average Light Level : 97 cd/m2

  31. Audio #1
  32. ID : 2
  33. Format : DTS XLL
  34. Format/Info : Digital Theater Systems
  35. Commercial name : DTS-HD Master Audio
  36. Codec ID : A_DTS
  37. Duration : 1 h 50 min
  38. Bit rate mode : Variable
  39. Bit rate : 3 450 kb/s
  40. Channel(s) : 6 channels
  41. Channel layout : C L R Ls Rs LFE
  42. Sampling rate : 48.0 kHz
  43. Frame rate : 93.750 FPS (512 SPF)
  44. Bit depth : 24 bits
  45. Compression mode : Lossless
  46. Delay relative to video : 3 ms
  47. Stream size : 2.67 GiB (18%)
  48. Title : DTS-HD MA 5.1
  49. Language : English
  50. Default : Yes
  51. Forced : No

  52. Audio #2
  53. ID : 3
  54. Format : E-AC-3
  55. Format/Info : Enhanced AC-3
  56. Commercial name : Dolby Digital Plus
  57. Codec ID : A_EAC3
  58. Duration : 1 h 50 min
  59. Bit rate mode : Constant
  60. Bit rate : 640 kb/s
  61. Channel(s) : 6 channels
  62. Channel layout : L R C LFE Ls Rs
  63. Sampling rate : 48.0 kHz
  64. Frame rate : 31.250 FPS (1536 SPF)
  65. Compression mode : Lossy
  66. Stream size : 506 MiB (3%)
  67. Title : DDP 5.1
  68. Language : English
  69. Service kind : Complete Main
  70. Default : No
  71. Forced : No

  72. Text
  73. ID : 4
  74. Format : UTF-8
  75. Codec ID : S_TEXT/UTF8
  76. Codec ID/Info : UTF-8 Plain Text
  77. Duration : 1 h 49 min
  78. Bit rate : 64 b/s
  79. Count of elements : 1896
  80. Stream size : 51.9 KiB (0%)
  81. Title : English-SRT
  82. Language : English
  83. Default : Yes
  84. Forced : No

  85. Menu
  86. 00:00:00.000 : en:Amazon Studios
  87. 00:00:20.000 : en:Studio Logos
  88. 00:00:58.000 : en:Kidnap job
  89. 00:02:23.000 : en:Harold hears a rumor
  90. 00:08:36.000 : en:Nelly sweetens a deal for Miles
  91. 00:11:10.000 : en:Harold starts to suspect something is wrong
  92. 00:14:48.000 : en:Everyone arrives in Mexico
  93. 00:16:15.000 : en:Richard puts his foot down
  94. 00:19:42.000 : en:Harold eavesdrops on a conversation
  95. 00:23:30.000 : en:More bad news
  96. 00:26:10.000 : en:Sanchez goes to see the boss
  97. 00:29:59.000 : en:Harold decides to take some time for himself
  98. 00:34:12.000 : en:Harold puts his plan into action
  99. 00:41:58.000 : en:Elaine gets Richard's head back in the game
  100. 00:46:20.000 : en:Harold drinks his problems away
  101. 00:47:46.000 : en:Elaine asserts her dominance
  102. 00:54:02.000 : en:Harold makes new friends
  103. 00:57:11.000 : en:Angel gets closer to finding Harold
  104. 01:04:37.000 : en:Sunny and Harold get to know one another
  105. 01:08:38.000 : en:Mitch and Harold go to the airport
  106. 01:11:35.000 : en:Harold starts to wake up
  107. 01:16:20.000 : en:Richard and Elaine find new angles
  108. 01:20:37.000 : en:Time to celebrate
  109. 01:25:53.000 : en:The Gonzalez brothers turn their prize in
  110. 01:29:49.000 : en:Harold is taken back to the plant
  111. 01:38:35.000 : en:Richard eats his carrots
  112. 01:43:28.000 : en:Closing Credits
  113. 01:45:33.000 : en:End Credits
复制代码

老板好坏(台) / 边个出差咁黑仔?(港) / 美国运通 / American Express/外国佬4k Gringo.2018.2160p.AMZN.WEB-DL.x265.10bit.HDR10plus.DTS-HD.MA.5.1.电影下载

外国佬4k Gringo.2018.2160p.AMZN.WEB-DL.x265.10bit.HDR10plus.DTS-HD.MA.5.1.电影下载
[Hao4k]外国佬4k Gringo.2018.2160p.AMZN.WEB-DL.x265.10bit.HDR10plus.DTS-HD.MA.5.1.torrent (73.71 KB)
回复

使用道具 举报

全部回复26

wenfeng168 发表于 2021-1-25 11:55:38 Hao4K手机版

wenfeng168 沙发

2021-1-25 11:55:38

评分可以,谢谢分享
回复 支持 反对

使用道具 举报

罗洋 发表于 2021-1-25 12:00:17

罗洋 板凳

2021-1-25 12:00:17

剧情简介:        美国运通并已招揽了大卫·奥伊罗、阿曼达·塞弗里德、乔尔·埃哲顿等演员加盟本片。亚马逊方面预计本片将于明年年初正式开拍。
回复 支持 反对

使用道具 举报

xxw8888 发表于 2021-1-25 12:07:53

xxw8888 地板

2021-1-25 12:07:53

感谢楼主的分享
回复 支持 反对

使用道具 举报

bbgrnnji 发表于 2021-1-25 18:45:18

bbgrnnji 5#

2021-1-25 18:45:18

低于6分的坚决不下了,但要谢谢楼主
回复 支持 反对

使用道具 举报

yale 发表于 2021-1-25 22:48:56

yale 6#

2021-1-25 22:48:56

谢谢分享
回复 支持 反对

使用道具 举报

concord3303 发表于 2021-1-26 10:41:16

concord3303 7#

2021-1-26 10:41:16

hao4K发佈的影片,不看评分只要我喜爱的,我必会下载!
单看评分是多余的!
回复 支持 反对

使用道具 举报

sexy 发表于 2021-1-26 13:39:46

sexy 8#

2021-1-26 13:39:46

评分有点低啊,等等看评论吧
回复 支持 反对

使用道具 举报

chuchan1 发表于 2021-1-26 13:59:07

chuchan1 9#

2021-1-26 13:59:07

谢谢分享精彩的电影
回复 支持 反对

使用道具 举报

panbell 发表于 2021-1-26 15:42:33

panbell 10#

2021-1-26 15:42:33

谢谢楼主,非常喜欢
回复 支持 反对

使用道具 举报

zjglpzyx 发表于 2021-1-26 20:47:21

zjglpzyx 11#

2021-1-26 20:47:21

等等看在下
回复 支持 反对

使用道具 举报

chuchan1 发表于 2021-1-27 09:03:38

chuchan1 12#

2021-1-27 09:03:38

谢谢分享!
回复 支持 反对

使用道具 举报

chuchan1 发表于 2021-1-28 13:30:20

chuchan1 13#

2021-1-28 13:30:20

感谢楼主的分享
回复 支持 反对

使用道具 举报

phskytom 发表于 2021-1-29 08:50:58

phskytom 14#

2021-1-29 08:50:58

动作喜剧片,下来看看,谢谢
回复 支持 反对

使用道具 举报

chuchan1 发表于 2021-1-29 10:22:39

chuchan1 15#

2021-1-29 10:22:39

谢谢分享,支持一下
回复 支持 反对

使用道具 举报

ww6 发表于 2021-2-1 10:53:26

ww6 16#

2021-2-1 10:53:26

谢谢分享
回复 支持 反对

使用道具 举报

lch1164840694 发表于 2021-2-3 09:28:17

lch1164840694 17#

2021-2-3 09:28:17

感谢楼主
回复 支持 反对

使用道具 举报

lch1164840694 发表于 2021-2-3 09:53:00

lch1164840694 18#

2021-2-3 09:53:00

感谢楼主
回复 支持 反对

使用道具 举报

   发表回复

您需要登录后才可以回帖 登录 | 立即注册

返回列表 本版积分规则

  • 在线客服

  • 返回顶部