微博 微信

Hao4K影音

电影频道
电影封面:
片  名: 谁是电话4k
电影分类: 恐怖 喜剧 
国  家: 美国 
年  代: 2020年
分 辨 率: 4K(3840x2160)
电影格式: MKV|REMUX 
画质标准: SDR 
音质编码: Dolby Digital Audio 
电影声道: 5.1声道 
帧数/FPS: 23.976 帧
电影语言: 英文原版 
资源大小: 9.15 GB
导  演: David Daan / Steve Daan
豆瓣评分: 4.1 分
中文字幕: -
剧情简介: Years after the death of her father, college student Fiona Stephens and her friends struggle to escape the grasp of a masked psychopath, hellbent on their brutal murders.
谁是电话4k Who.Was.Phone.2020.2160p.WEB-DL.x265.10bit.SDR.DD5.1.x265-4k电影信息
  1. Video
  2. ID : 1
  3. Format : HEVC
  4. Format/Info : High Efficiency Video Coding
  5. Format profile : Main 10@L5@High
  6. Codec ID : V_MPEGH/ISO/HEVC
  7. Duration : 1 h 45 min
  8. Bit rate : 12.0 Mb/s
  9. Width : 3 836 pixels
  10. Height : 1 596 pixels
  11. Display aspect ratio : 2.40:1
  12. Frame rate mode : Constant
  13. Frame rate : 23.976 FPS
  14. Color space : YUV
  15. Chroma subsampling : 4:2:0
  16. Bit depth : 10 bits
  17. Bits/(Pixel*Frame) : 0.082
  18. Stream size : 8.87 GiB (97%)
  19. Language : English
  20. Default : Yes
  21. Forced : No
  22. Color range : Limited
  23. Color primaries : BT.709
  24. Transfer characteristics : BT.709
  25. Matrix coefficients : BT.709

  26. Audio
  27. ID : 2
  28. Format : AC-3
  29. Format/Info : Audio Coding 3
  30. Commercial name : Dolby Digital
  31. Codec ID : A_AC3
  32. Duration : 1 h 45 min
  33. Bit rate mode : Constant
  34. Bit rate : 384 kb/s
  35. Channel(s) : 6 channels
  36. Channel layout : L R C LFE Ls Rs
  37. Sampling rate : 48.0 kHz
  38. Frame rate : 31.250 FPS (1536 SPF)
  39. Compression mode : Lossy
  40. Stream size : 290 MiB (3%)
  41. Language : English
  42. Service kind : Complete Main
  43. Default : Yes
  44. Forced : No

  45. Text
  46. ID : 3
  47. Format : UTF-8
  48. Codec ID : S_TEXT/UTF8
  49. Codec ID/Info : UTF-8 Plain Text
  50. Duration : 1 h 44 min
  51. Bit rate : 45 b/s
  52. Count of elements : 1516
  53. Stream size : 35.1 KiB (0%)
  54. Title : (SDH)
  55. Language : English
  56. Default : No
  57. Forced : No
复制代码


谁是电话4k Who.Was.Phone.2020.2160p.WEB-DL.x265.10bit.SDR.DD5.1.x265-4k电影下载

谁是电话4k Who.Was.Phone.2020.2160p.WEB-DL.x265.10bit.SDR.DD5.1.x265【9.15 GB 】
[Hao4k]谁是电话?4k Who.Was.Phone.2020.2160p.WEB-DL.x265.10bit.SDR.DD5.1.x265-RO.torrent (23.52 KB)
回复

使用道具 举报

全部回复13

aiyok125 发表于 2021-8-24 11:36:10

aiyok125 2

2021-8-24 11:36:10

这部电影名字好奇怪
回复 支持 反对

使用道具 举报

s2d20wang 发表于 2021-8-24 17:39:30

s2d20wang 3

2021-8-24 17:39:30

感谢楼主辛苦分享!
回复 支持 反对

使用道具 举报

gaoshoujian 发表于 2021-8-24 17:58:39

gaoshoujian 4

2021-8-24 17:58:39

这部电影名字是挺奇怪的
回复 支持 反对

使用道具 举报

小菜菜鸟 发表于 2021-8-24 18:58:40

小菜菜鸟 5

2021-8-24 18:58:40

最近恐怖片发布的不少啊,但是知名度比较低。
回复 支持 反对

使用道具 举报

18824397052 发表于 2021-8-24 20:48:12

18824397052 6

2021-8-24 20:48:12

这个翻译过分了。应是,电话那头是谁
回复 支持 反对

使用道具 举报

dengke118 发表于 2021-8-25 08:23:37

dengke118 7

2021-8-25 08:23:37

电影名称很奇怪,谢谢分享!
回复 支持 反对

使用道具 举报

zhangshixiong 发表于 2021-8-25 11:40:01

zhangshixiong 8

2021-8-25 11:40:01

谢谢分享!
回复 支持 反对

使用道具 举报

QQ_1C652F 发表于 2021-8-25 12:18:58

QQ_1C652F 9

2021-8-25 12:18:58

谢谢楼主无私分享
回复 支持 反对

使用道具 举报

aojigao39 发表于 2021-8-25 13:29:57 Hao4K手机版

aojigao39 10

2021-8-25 13:29:57

字幕怎么没有??也搜索不到,谁提供下。谢谢
回复 支持 反对

使用道具 举报

晨时微凉 发表于 2021-8-25 17:37:33 Hao4K手机版

晨时微凉 11

2021-8-25 17:37:33

谢谢分享!
回复 支持 反对

使用道具 举报

waj 发表于 2021-8-26 16:18:25 Hao4K手机版

waj 12

2021-8-26 16:18:25

怎么这么大的文件,装不下装不下,怎么办呢??????????
回复 支持 反对

使用道具 举报

lr152043 发表于 2021-8-31 10:47:03

lr152043 13

2021-8-31 10:47:03


电影名称很奇怪,谢谢分享!
回复 支持 反对

使用道具 举报

yangy_75 发表于 2021-9-6 16:42:38

yangy_75 14

2021-9-6 16:42:38

感谢楼主分享!!!
回复 支持 反对

使用道具 举报

   发表回复

您需要登录后才可以回帖 登录 | 立即注册

返回列表 本版积分规则

  • 在线客服

  • 返回顶部