微博 微信 APP

Hao4K影音

电影频道
电影封面:
片  名: The.Wedding.of.the.Century
电影分类: 纪录片 
国  家: 英国 
年  代: 2021年
分 辨 率: 4K(3840x2160)
电影格式: MKV|REMUX 
画质标准: HDR10 
音质编码: Dolby Digital Plus Audio 
电影声道: 5.1声道 
帧数/FPS: 25.000 帧
电影语言: 英文原版 
资源大小: 7.94 GB
导  演: -
豆瓣评分:
中文字幕: -
剧情简介:  This feature-length documentary reframes one of the most iconic days in history like never before, with beautifully restored original film of Prince Charles and Lady Diana Spencer\'s wedding, now presented in full 4k resolution.
The.Wedding.of.the.Century.2021.2160p.AMZN.WEB-DL.x265.10bit.HDR10Plus.DDP5.1-纪录片信息
  1. Video
  2. ID : 1
  3. Format : HEVC
  4. Format/Info : High Efficiency Video Coding
  5. Format profile : Main 10@L5@Main
  6. HDR format : SMPTE ST 2094 App 4, Version 1, HDR10+ Profile B compatible
  7. Codec ID : V_MPEGH/ISO/HEVC
  8. Duration : 1 h 13 min
  9. Bit rate : 14.9 Mb/s
  10. Width : 3 840 pixels
  11. Height : 2 160 pixels
  12. Display aspect ratio : 16:9
  13. Frame rate mode : Constant
  14. Frame rate : 25.000 FPS
  15. Color space : YUV
  16. Chroma subsampling : 4:2:0
  17. Bit depth : 10 bits
  18. Bits/(Pixel*Frame) : 0.072
  19. Stream size : 7.61 GiB (96%)
  20. Default : Yes
  21. Forced : No
  22. Color range : Limited
  23. Color primaries : BT.2020
  24. Transfer characteristics : PQ
  25. Matrix coefficients : BT.2020 non-constant
  26. Mastering display color primaries : BT.2020
  27. Mastering display luminance : min: 0.0050 cd/m2, max: 1000 cd/m2
  28. Maximum Content Light Level : 736 cd/m2
  29. Maximum Frame-Average Light Level : 570 cd/m2

  30. Audio
  31. ID : 2
  32. Format : E-AC-3
  33. Format/Info : Enhanced AC-3
  34. Commercial name : Dolby Digital Plus
  35. Codec ID : A_EAC3
  36. Duration : 1 h 13 min
  37. Bit rate mode : Constant
  38. Bit rate : 640 kb/s
  39. Channel(s) : 6 channels
  40. Channel layout : L R C LFE Ls Rs
  41. Sampling rate : 48.0 kHz
  42. Frame rate : 31.250 FPS (1536 SPF)
  43. Compression mode : Lossy
  44. Stream size : 335 MiB (4%)
  45. Language : English
  46. Service kind : Complete Main
  47. Default : Yes
  48. Forced : No

  49. Text #1
  50. ID : 3
  51. Format : UTF-8
  52. Codec ID : S_TEXT/UTF8
  53. Codec ID/Info : UTF-8 Plain Text
  54. Duration : 1 h 12 min
  55. Bit rate : 91 b/s
  56. Count of elements : 1238
  57. Stream size : 48.5 KiB (0%)
  58. Language : English
  59. Default : No
  60. Forced : No

  61. Text #2
  62. ID : 4
  63. Format : UTF-8
  64. Codec ID : S_TEXT/UTF8
  65. Codec ID/Info : UTF-8 Plain Text
  66. Duration : 1 h 12 min
  67. Bit rate : 95 b/s
  68. Count of elements : 1300
  69. Stream size : 50.8 KiB (0%)
  70. Title : SDH
  71. Language : English
  72. Default : No
  73. Forced : No
复制代码

The.Wedding.of.the.Century.2021.2160p.AMZN.WEB-DL.x265.10bit.HDR10Plus.DDP5.1-纪录片下载

The.Wedding.of.the.Century.2021.2160p.AMZN.WEB-DL.x265.10bit.HDR10Plus.DDP5.1【7.94 GB】
[Hao4k]The.Wedding.of.the.Century.2021.2160p.AMZN.WEB-DL.x265.10bit.HDR10Plus.DDP5.1-SiGLA.torrent (20.51 KB, 售价: 3 个K币)
回复

使用道具 举报

全部回复3

66孔子 21-11-24 15:28 显示全部楼层

66孔子 2

21-11-24 15:28

辛苦楼主分享
回复 支持 反对

使用道具 举报

r31325 21-11-24 16:34 显示全部楼层

r31325 3

21-11-24 16:34

奇怪的王妃
回复 支持 反对

使用道具 举报

A7B83C 21-11-26 20:11 显示全部楼层

A7B83C 4

21-11-26 20:11

没有速度,没有速度,白花了3个币
回复 支持 反对

使用道具 举报

   发表回复

您需要登录后才可以回帖 登录 | 立即注册

返回列表 本版积分规则

  • 发布新帖

  • 客服/帮助

  • 手机APP

  • 返回顶部