微博 微信

Hao4K影音

电影频道
电影封面:
片  名: 低潮4k
电影分类: 剧情 
国  家: 美国 
年  代: 2018年
分 辨 率: 4K(3840x2160)
电影格式: MKV|REMUX 
画质标准: HDR10 
音质编码: Dolby Digital Plus Audio 
电影声道: 5.1声道 
帧数/FPS: 23.976 FPS
电影语言: 英文原版 
资源大小: 9.07 GB
导  演: Kevin McMullin
豆瓣评分: 6.6 分
中文字幕: -
剧情简介:  艾伦、瑞德和斯米蒂在泽西海岸度过盛夏,漫步在木板路上时陷入困境。但他们发现了宝藏,这使得朋友们的怀疑和暴力升级。
低潮4k Low.Tide.2019.2160p.AMZN.WEB-DL.x265.10bit.HDR10plus.DDP5.1.电影信息
  1. Video
  2. ID : 1
  3. Format : HEVC
  4. Format/Info : High Efficiency Video Coding
  5. Format profile : Main 10@L5@Main
  6. HDR format : SMPTE ST 2094 App 4, Version 1, HDR10+ Profile B compatible
  7. Codec ID : V_MPEGH/ISO/HEVC
  8. Duration : 1 h 25 min
  9. Bit rate : 14.5 Mb/s
  10. Width : 3 840 pixels
  11. Height : 1 600 pixels
  12. Display aspect ratio : 2.40:1
  13. Frame rate mode : Constant
  14. Frame rate : 23.976 (24000/1001) FPS
  15. Color space : YUV
  16. Chroma subsampling : 4:2:0
  17. Bit depth : 10 bits
  18. Bits/(Pixel*Frame) : 0.098
  19. Stream size : 8.69 GiB (96%)
  20. Default : Yes
  21. Forced : No
  22. Color range : Limited
  23. Color primaries : BT.2020
  24. Transfer characteristics : PQ
  25. Matrix coefficients : BT.2020 non-constant
  26. Mastering display color primaries : Display P3
  27. Mastering display luminance : min: 0.0020 cd/m2, max: 1000 cd/m2
  28. Maximum Content Light Level : 7550 cd/m2
  29. Maximum Frame-Average Light Level : 109 cd/m2

  30. Audio
  31. ID : 2
  32. Format : E-AC-3
  33. Format/Info : Enhanced AC-3
  34. Commercial name : Dolby Digital Plus
  35. Codec ID : A_EAC3
  36. Duration : 1 h 25 min
  37. Bit rate mode : Constant
  38. Bit rate : 640 kb/s
  39. Channel(s) : 6 channels
  40. Channel layout : L R C LFE Ls Rs
  41. Sampling rate : 48.0 kHz
  42. Frame rate : 31.250 FPS (1536 SPF)
  43. Compression mode : Lossy
  44. Stream size : 393 MiB (4%)
  45. Title : DDP 5.1
  46. Language : English
  47. Service kind : Complete Main
  48. Default : Yes
  49. Forced : No

  50. Text
  51. ID : 3
  52. Format : UTF-8
  53. Codec ID : S_TEXT/UTF8
  54. Codec ID/Info : UTF-8 Plain Text
  55. Duration : 1 h 21 min
  56. Bit rate : 56 b/s
  57. Count of elements : 1252
  58. Stream size : 33.9 KiB (0%)
  59. Title : SDH
  60. Language : English
  61. Default : No
  62. Forced : No

  63. Menu
  64. 00:00:00.000 : en:Studio Logo
  65. 00:00:34.000 : en:Opening Credits
  66. 00:00:49.000 : en:Scene 3
  67. 00:01:03.000 : en:Title Sequence
  68. 00:01:07.000 : en:Scene 5
  69. 00:17:57.000 : en:Scene 6
  70. 00:40:08.000 : en:Scene 7
  71. 00:58:49.000 : en:Scene 8
  72. 01:21:56.000 : en:End Credits
复制代码

低潮4k Low.Tide.2019.2160p.AMZN.WEB-DL.x265.10bit.HDR10plus.DDP5.1.电影下载

低潮4k Low.Tide.2019.2160p.AMZN.WEB-DL.x265.10bit.HDR10plus.DDP5.1【9.07 GB】
[Hao4k]低潮4k Low.Tide.2019.2160p.AMZN.WEB-DL.x265.10bit.HDR10plus.DDP5.1-SWTYBLZ.torrent (45.92 KB)
回复

使用道具 举报

全部回复13

ywf6168 发表于 6 天前

ywf6168 沙发

6 天前

喜欢,谢谢分享
回复 支持 反对

使用道具 举报

FASSY 发表于 6 天前

FASSY 板凳

6 天前

非常感谢!
回复 支持 反对

使用道具 举报

andywjhh 发表于 6 天前

andywjhh 地板

6 天前

感谢分享,楼主辛苦你了哦
回复 支持 反对

使用道具 举报

zzszengzeng 发表于 6 天前

zzszengzeng 5#

6 天前

感谢分享,支持了
回复 支持 反对

使用道具 举报

带面包的猫 发表于 6 天前

带面包的猫 6#

6 天前

真的谢谢!现在资源都很难得!
回复 支持 反对

使用道具 举报

leish 发表于 6 天前

leish 7#

6 天前

HDR10plus是不是就是HDR10+?
回复 支持 反对

使用道具 举报

听歌入睡 发表于 6 天前

听歌入睡 8#

6 天前

谢谢分享
回复 支持 反对

使用道具 举报

dyczw 发表于 5 天前

dyczw 9#

5 天前

感谢分享,辛苦了
回复 支持 反对

使用道具 举报

dk30129 发表于 5 天前

dk30129 10#

5 天前

感谢分享,支持了!!!
回复 支持 反对

使用道具 举报

ieee1395 发表于 5 天前

ieee1395 11#

5 天前

感谢分享,支持了
回复 支持 反对

使用道具 举报

ahs371 发表于 5 天前

ahs371 12#

5 天前

谢谢,辛苦了!
回复 支持 反对

使用道具 举报

yangly 发表于 5 天前

yangly 13#

5 天前

感谢分享,支持了
回复 支持 反对

使用道具 举报

yale 发表于 5 天前

yale 14#

5 天前

谢谢分享
回复 支持 反对

使用道具 举报

   发表回复

您需要登录后才可以回帖 登录 | 立即注册

返回列表 本版积分规则

  • 在线客服

  • 返回顶部