微博 微信

Hao4K影音

电影频道
电影封面:
片  名: 深海异兽4k
电影分类: 动作 科幻 恐怖 惊悚 
国  家: 美国 
年  代: 2020年
分 辨 率: 4K(3840x2160)
电影格式: MKV|REMUX 
画质标准: HDR10 
音质编码: DTS-HD Master Audio 
电影声道: 7.1声道 
帧数/FPS: 23.976 帧
电影语言: 英文原版 
资源大小: 20.16 GB
导  演: 威廉·尤班克
豆瓣评分: 5.9 分
中文字幕: /thread-55091-1-1.html
剧情简介:  一场惊天动地的大地震,让设在海平面下的实验室危在旦夕!
  一场毁灭性的地震,让6名驻扎于海底的研究人员受困于即将被淹没的研究设施,唯一的生存之路竟然只剩下徒步经由海底平面走到遥远的废弃钻井台。
  在这充满挑战的旅途中,他们很快就意识到,除了得依靠简陋装备克服缺氧危机,某种前所未见、致命的海底掠食者已被唤醒,并将他们当作猎物般的追击扑杀…
深海终劫站(台) / 水下/深海异兽4k Underwater.2020.2160p..AMZN.WEB-DL.x265.10bit.HDR10Plus.DTS-HD.MA.7.1电影信息
  1. Video
  2. ID : 1
  3. Format : HEVC
  4. Format/Info : High Efficiency Video Coding
  5. Format profile : Main 10@L5.1@Main
  6. HDR format : SMPTE ST 2086, HDR10 compatible
  7. Codec ID : V_MPEGH/ISO/HEVC
  8. Duration : 1 h 34 min
  9. Bit rate : 24.6 Mb/s
  10. Width : 3 840 pixels
  11. Height : 2 160 pixels
  12. Display aspect ratio : 16:9
  13. Frame rate mode : Constant
  14. Frame rate : 23.976 (24000/1001) FPS
  15. Color space : YUV
  16. Chroma subsampling : 4:2:0 (Type 2)
  17. Bit depth : 10 bits
  18. Bits/(Pixel*Frame) : 0.124
  19. Stream size : 16.3 GiB (81%)
  20. Default : Yes
  21. Forced : No
  22. Color range : Limited
  23. Color primaries : BT.2020
  24. Transfer characteristics : PQ
  25. Matrix coefficients : BT.2020 non-constant
  26. Mastering display color primaries : Display P3
  27. Mastering display luminance : min: 0.0050 cd/m2, max: 1000 cd/m2

  28. Audio #1
  29. ID : 2
  30. Format : DTS XLL
  31. Format/Info : Digital Theater Systems
  32. Commercial name : DTS-HD Master Audio
  33. Codec ID : A_DTS
  34. Duration : 1 h 34 min
  35. Bit rate mode : Variable
  36. Bit rate : 5 157 kb/s
  37. Channel(s) : 8 channels
  38. Channel layout : C L R LFE Lb Rb Lss Rss
  39. Sampling rate : 48.0 kHz
  40. Frame rate : 93.750 FPS (512 SPF)
  41. Bit depth : 24 bits
  42. Compression mode : Lossless
  43. Delay relative to video : 1 s 1 ms
  44. Stream size : 3.42 GiB (17%)
  45. Title : DTS-HD MA 7.1
  46. Language : English
  47. Default : Yes
  48. Forced : No

  49. Audio #2
  50. ID : 3
  51. Format : AC-3
  52. Format/Info : Audio Coding 3
  53. Commercial name : Dolby Digital
  54. Codec ID : A_AC3
  55. Duration : 1 h 34 min
  56. Bit rate mode : Constant
  57. Bit rate : 640 kb/s
  58. Channel(s) : 6 channels
  59. Channel layout : L R C LFE Ls Rs
  60. Sampling rate : 48.0 kHz
  61. Frame rate : 31.250 FPS (1536 SPF)
  62. Compression mode : Lossy
  63. Stream size : 435 MiB (2%)
  64. Title : DD 5.1
  65. Language : English
  66. Service kind : Complete Main
  67. Default : No
  68. Forced : No

  69. Text #1
  70. ID : 4
  71. Format : UTF-8
  72. Codec ID : S_TEXT/UTF8
  73. Codec ID/Info : UTF-8 Plain Text
  74. Duration : 1 h 30 min
  75. Bit rate : 52 b/s
  76. Count of elements : 1182
  77. Stream size : 34.4 KiB (0%)
  78. Language : English
  79. Default : Yes
  80. Forced : No

  81. Text #2
  82. ID : 5
  83. Format : UTF-8
  84. Codec ID : S_TEXT/UTF8
  85. Codec ID/Info : UTF-8 Plain Text
  86. Duration : 1 h 34 min
  87. Bit rate : 58 b/s
  88. Count of elements : 1354
  89. Stream size : 40.8 KiB (0%)
  90. Title : SDH
  91. Language : English
  92. Default : No
  93. Forced : No

  94. Menu
  95. 00:00:01.001 : en:Chapter 01
  96. 00:06:18.920 : en:Chapter 02
  97. 00:09:40.705 : en:Chapter 03
  98. 00:13:26.723 : en:Chapter 04
  99. 00:16:23.065 : en:Chapter 05
  100. 00:20:40.948 : en:Chapter 06
  101. 00:22:52.538 : en:Chapter 07
  102. 00:27:12.172 : en:Chapter 08
  103. 00:30:52.142 : en:Chapter 09
  104. 00:34:27.649 : en:Chapter 10
  105. 00:39:26.364 : en:Chapter 11
  106. 00:43:42.787 : en:Chapter 12
  107. 00:48:41.252 : en:Chapter 13
  108. 00:53:58.902 : en:Chapter 14
  109. 00:56:01.900 : en:Chapter 15
  110. 01:01:54.878 : en:Chapter 16
  111. 01:05:27.173 : en:Chapter 17
  112. 01:08:13.756 : en:Chapter 18
  113. 01:13:53.888 : en:Chapter 19
  114. 01:16:05.478 : en:Chapter 20
  115. 01:18:35.961 : en:Chapter 21
  116. 01:21:23.087 : en:Chapter 22
  117. 01:23:05.063 : en:Chapter 23
  118. 01:29:52.637 : en:Chapter 24
复制代码

深海终劫站(台) / 水下/深海异兽4k Underwater.2020.2160p..AMZN.WEB-DL.x265.10bit.HDR10Plus.DTS-HD.MA.7.1电影下载

深海异兽4k Underwater.2020.2160p..AMZN.WEB-DL.x265.10bit.HDR10Plus.DTS-HD.MA.7.1【13.55 GB】
[Hao4k]深海异兽4k Underwater.2020.2160p.AMZN.WEB-DL.x265.10bit.HDR10Plus.DTS-HD..torrent (68.35 KB, 售价: 2 K币)
回复

使用道具 举报

全部回复123

andychen 发表于 2021-3-11 13:52:30

andychen 沙发

2021-3-11 13:52:30

太棒啦此片音响效果极佳
回复 支持 反对

使用道具 举报

xv6950 发表于 2021-3-11 15:04:46

xv6950 板凳

2021-3-11 15:04:46

音响效果极佳?
回复 支持 反对

使用道具 举报

bonna 发表于 2021-3-11 15:13:28

bonna 地板

2021-3-11 15:13:28

威廉·尤班克导演。
回复 支持 反对

使用道具 举报

jylzj 发表于 2021-3-11 15:35:22

jylzj 5#

2021-3-11 15:35:22

这方面的电影比较好看,谢谢
回复 支持 反对

使用道具 举报

2019hk2125 发表于 2021-3-11 15:38:20

2019hk2125 6#

2021-3-11 15:38:20

不知道怎么样哦!!
回复 支持 反对

使用道具 举报

chbo 发表于 2021-3-11 15:51:33

chbo 7#

2021-3-11 15:51:33

谢谢分享
回复 支持 反对

使用道具 举报

mx9001 发表于 2021-3-11 17:16:04

mx9001 8#

2021-3-11 17:16:04

冲着音响效果也得看看
回复 支持 反对

使用道具 举报

kennethlin168 发表于 2021-3-11 17:38:10

kennethlin168 9#

2021-3-11 17:38:10

谢谢分享
回复 支持 反对

使用道具 举报

bbgrnnji 发表于 2021-3-11 17:43:12

bbgrnnji 10#

2021-3-11 17:43:12

没看出来是克里斯汀·斯图尔特,谢了
回复 支持 反对

使用道具 举报

大师兄DA 发表于 2021-3-11 17:43:20

大师兄DA 11#

2021-3-11 17:43:20

下载之后,字幕是英文的,没有中文字幕吗?
回复 支持 反对

使用道具 举报

天籁2013 发表于 2021-3-11 18:15:30

天籁2013 12#

2021-3-11 18:15:30

谢谢楼主无私分享,收下了!
回复 支持 反对

使用道具 举报

445699628 发表于 2021-3-11 18:16:31

445699628 13#

2021-3-11 18:16:31

希望有真正的4K原盘出来!
回复 支持 反对

使用道具 举报

天堂盾 发表于 2021-3-11 18:37:53

天堂盾 14#

2021-3-11 18:37:53

太棒啦此片音响效果极佳
回复 支持 反对

使用道具 举报

womennihao 发表于 2021-3-11 18:38:50

womennihao 15#

2021-3-11 18:38:50

才5点多分,到底好不好看?
回复 支持 反对

使用道具 举报

DIYIYAN 发表于 2021-3-11 19:52:48

DIYIYAN 16#

2021-3-11 19:52:48

关灯看效果更佳
回复 支持 反对

使用道具 举报

该死的猪 发表于 2021-3-11 20:08:35

该死的猪 17#

2021-3-11 20:08:35


太棒啦此片音响效果极佳~~~
回复 支持 反对

使用道具 举报

blucewee1984 发表于 2021-3-11 20:31:13

blucewee1984 18#

2021-3-11 20:31:13

顶一个 9感谢分享
回复 支持 反对

使用道具 举报

   发表回复

您需要登录后才可以回帖 登录 | 立即注册

返回列表 本版积分规则

  • 在线客服

  • 返回顶部