微博 微信

Hao4K影音

电影频道
电影封面:
片  名: 遗孀秘闻4k
电影分类: 剧情 悬疑 
国  家: 美国 其他 
年  代: 2018年
分 辨 率: 4K(3840x2160)
电影格式: MKV|REMUX 
画质标准: HDR10 
音质编码: DTS-HD Master Audio 
电影声道: 5.1声道 
帧数/FPS: 23.976 帧
电影语言: 英文原版 
资源大小: 13.20 GB
导  演: 尼尔·乔丹
豆瓣评分: 6.1 分
中文字幕: /thread-55441-1-1.html
剧情简介:  弗朗西斯(科洛·格蕾斯·莫瑞兹 Chloe Grace Moretz 饰)是一位单纯善良的女大学生,一天,在地铁上,弗朗西斯捡到了一个手提袋,寻着手提袋里的字条上的地址,弗朗西斯敲响了格雷塔(伊莎贝尔·于佩尔 Isabelle Huppert 饰)家的大门。格雷塔感谢了弗朗西斯的善举,言谈之间,弗朗西斯得知她是一名寡妇,终日生活在孤独之中,顿时对她心生怜悯。
  就这样,弗朗西斯和格雷塔之间的走动变得频繁起来,两人的关系越来越热络,甚至被人视为母女。某日,弗朗西斯偶然在格雷塔家里发现了很多和她当初捡到的手提袋同款的袋子,每一个袋子里都放着写有地址的字条,这让弗朗西斯开始意识到,自己似乎落入了格雷塔设下的圈套之中。
友谊永锢(港) / 侵密室友(台) / 格蕾塔 / 寡妇 / The Widow/遗孀秘闻4k Greta.2018.2160p.AMZN.WEB-DL.x265.10bit.HDR10Plus.DTS-HD.MA.5.1电影信息
  1. Video
  2. ID : 1
  3. Format : HEVC
  4. Format/Info : High Efficiency Video Coding
  5. Format profile : Main 10@L5@Main
  6. HDR format : SMPTE ST 2094 App 4, Version 1, HDR10+ Profile B compatible
  7. Codec ID : V_MPEGH/ISO/HEVC
  8. Duration : 1 h 38 min
  9. Bit rate : 14.8 Mb/s
  10. Width : 3 840 pixels
  11. Height : 1 600 pixels
  12. Display aspect ratio : 2.40:1
  13. Frame rate mode : Constant
  14. Frame rate : 23.976 (24000/1001) FPS
  15. Color space : YUV
  16. Chroma subsampling : 4:2:0
  17. Bit depth : 10 bits
  18. Bits/(Pixel*Frame) : 0.101
  19. Stream size : 10.2 GiB (77%)
  20. Default : Yes
  21. Forced : No
  22. Color range : Limited
  23. Color primaries : BT.2020
  24. Transfer characteristics : PQ
  25. Matrix coefficients : BT.2020 non-constant
  26. Mastering display color primaries : Display P3
  27. Mastering display luminance : min: 0.0050 cd/m2, max: 1000 cd/m2
  28. Maximum Content Light Level : 992 cd/m2
  29. Maximum Frame-Average Light Level : 71 cd/m2

  30. Audio #1
  31. ID : 2
  32. Format : DTS XLL
  33. Format/Info : Digital Theater Systems
  34. Commercial name : DTS-HD Master Audio
  35. Codec ID : A_DTS
  36. Duration : 1 h 38 min
  37. Bit rate mode : Variable
  38. Bit rate : 3 676 kb/s
  39. Channel(s) : 6 channels
  40. Channel layout : C L R Ls Rs LFE
  41. Sampling rate : 48.0 kHz
  42. Frame rate : 93.750 FPS (512 SPF)
  43. Bit depth : 24 bits
  44. Compression mode : Lossless
  45. Delay relative to video : 5 ms
  46. Stream size : 2.53 GiB (19%)
  47. Title : DTS-HD MA 5.1
  48. Language : English
  49. Default : Yes
  50. Forced : No

  51. Audio #2
  52. ID : 3
  53. Format : AC-3
  54. Format/Info : Audio Coding 3
  55. Commercial name : Dolby Digital
  56. Codec ID : A_AC3
  57. Duration : 1 h 38 min
  58. Bit rate mode : Constant
  59. Bit rate : 640 kb/s
  60. Channel(s) : 6 channels
  61. Channel layout : L R C LFE Ls Rs
  62. Sampling rate : 48.0 kHz
  63. Frame rate : 31.250 FPS (1536 SPF)
  64. Compression mode : Lossy
  65. Stream size : 451 MiB (3%)
  66. Title : DD 5.1
  67. Language : English
  68. Service kind : Complete Main
  69. Default : No
  70. Forced : No

  71. Text
  72. ID : 4
  73. Format : UTF-8
  74. Codec ID : S_TEXT/UTF8
  75. Codec ID/Info : UTF-8 Plain Text
  76. Duration : 1 h 38 min
  77. Bit rate : 50 b/s
  78. Count of elements : 1477
  79. Stream size : 36.5 KiB (0%)
  80. Title : SDH
  81. Language : English
  82. Default : Yes
  83. Forced : No

  84. Menu
  85. 00:00:00.000 : en:Studio Logo
  86. 00:00:56.000 : en:Scene 2
  87. 00:10:22.000 : en:Scene 3
  88. 00:22:49.000 : en:Scene 4
  89. 00:42:55.000 : en:Scene 5
  90. 01:00:44.000 : en:Scene 6
  91. 01:23:17.000 : en:Scene 7
  92. 01:34:10.000 : en:End Credits
复制代码

友谊永锢(港) / 侵密室友(台) / 格蕾塔 / 寡妇 / The Widow/遗孀秘闻4k Greta.2018.2160p.AMZN.WEB-DL.x265.10bit.HDR10Plus.DTS-HD.MA.5.1电影下载

遗孀秘闻4k Greta.2018.2160p.AMZN.WEB-DL.x265.10bit.HDR10Plus.DTS-HD.MA.5.1【13.20GB】
[Hao4k]遗孀秘闻4k Greta.2018.2160p.AMZN.WEB-DL.x265.10bit.HDR10Plus.DTS-HD.MA.5..torrent (66.58 KB)
回复

使用道具 举报

全部回复23

bbgrnnji 发表于 2021-3-21 15:05:26

bbgrnnji 沙发

2021-3-21 15:05:26

伊莎贝尔·于佩尔演技好啊,谢谢楼主
回复 支持 反对

使用道具 举报

dk30129 发表于 2021-3-21 19:32:56

dk30129 板凳

2021-3-21 19:32:56

谢谢分享,楼主辛苦了!
回复 支持 反对

使用道具 举报

ywf6168 发表于 2021-3-21 20:09:51

ywf6168 地板

2021-3-21 20:09:51

谢谢分享,楼主辛苦了!
回复 支持 反对

使用道具 举报

yale 发表于 2021-3-21 22:13:52

yale 5#

2021-3-21 22:13:52

谢谢分享
回复 支持 反对

使用道具 举报

蓝天空 发表于 2021-3-22 01:34:03

蓝天空 6#

2021-3-22 01:34:03


谢谢分享,楼主辛苦了!
回复 支持 反对

使用道具 举报

sos5854641 发表于 2021-3-22 02:20:11

sos5854641 7#

2021-3-22 02:20:11

4k简直刷新了我对看电影的认知
回复 支持 反对

使用道具 举报

shapek88 发表于 2021-3-22 09:36:56

shapek88 8#

2021-3-22 09:36:56

楼主辛苦了 ,免费的
回复 支持 反对

使用道具 举报

dk30129 发表于 2021-3-22 09:40:45

dk30129 9#

2021-3-22 09:40:45

谢谢分享,顶你!!!!
回复 支持 反对

使用道具 举报

andyjia1128 发表于 2021-3-22 10:13:28

andyjia1128 10#

2021-3-22 10:13:28

好电影 下来看看
回复 支持 反对

使用道具 举报

panbell 发表于 2021-3-22 10:56:48

panbell 11#

2021-3-22 10:56:48

楼主辛苦了
回复 支持 反对

使用道具 举报

andywjhh 发表于 2021-3-22 11:36:08

andywjhh 12#

2021-3-22 11:36:08

好资源很给力
回复 支持 反对

使用道具 举报

lpf199468L 发表于 2021-3-22 15:23:37

lpf199468L 13#

2021-3-22 15:23:37


谢谢分享!
回复 支持 反对

使用道具 举报

雷电 发表于 2021-3-22 15:25:38 Hao4K手机版

雷电 14#

2021-3-22 15:25:38

谢谢分享,楼主辛苦了!
回复 支持 反对

使用道具 举报

66孔子 发表于 2021-3-22 19:51:56

66孔子 15#

2021-3-22 19:51:56

谢谢分享,楼主辛苦了
回复 支持 反对

使用道具 举报

13143759029 发表于 2021-3-23 14:26:17

13143759029 16#

2021-3-23 14:26:17


感谢分享,下来看看!
回复 支持 反对

使用道具 举报

zxhu1234 发表于 2021-3-24 00:35:57

zxhu1234 17#

2021-3-24 00:35:57

谢谢分享,楼主辛苦了
回复 支持 反对

使用道具 举报

dk30129 发表于 2021-3-24 19:11:07

dk30129 18#

2021-3-24 19:11:07

谢谢分享,顶你!!!
回复 支持 反对

使用道具 举报

   发表回复

您需要登录后才可以回帖 登录 | 立即注册

返回列表 本版积分规则

  • 在线客服

  • 返回顶部